Featured TV Shows


I Know Who You Are S01E08

Posted By: Tavaz
720p (HD) / HDTV IMDb
I Know Who You Are S01E08

I Know Who You Are S01E08
HDTV | MKV | 1280x720 | English | H264 @ 2232 kbps | MPEG Audio @ 192 kbps | 1 h 7 min | 1.15 GiB
Genre: Crime, Drame

Juan Elías, un avocat prestigieux, perd la mémoire à la suite de ce qui semble être un accident de voiture. Avec l'aide de sa femme, la juge Alicia Castro, il tente de se remémorer les circonstances du drame. Mais en retrouvant la voiture, le sang de sa nièce disparue, Ana Saura, est aussi découvert. Ramon, le père de la jeune fille, va tenter de prouver que Juan est le meurtrier.

i.know.who.you.are.s01e08.french.720p.hdtv.x264-sh0w.sample.mkv (15.8 MB)
i.know.who.you.are.s01e08.french.720p.hdtv.x264-sh0w.mkv (1.1 GB)



General
Unique ID : 151822145049840462144135404875320402692 (0x7237E1AC6D01A6DF9E684BC523542304)
Complete name : ./i.know.who.you.are.s01e08.french.720p.hdtv.x264-sh0w.mkv
Format : Matroska
Format version : Version 4 / Version 2
File size : 1.15 GiB
Duration : 1 h 7 min
Overall bit rate : 2 426 kb/s
Encoded date : UTC 2018-02-25 15:03:59
Writing application : mkvmerge v21.0.0 ('Tardigrades Will Inherit The Earth') 64-bit
Writing library : libebml v1.3.5 + libmatroska v1.4.8

Video
ID : 1
Format : AVC
Format/Info : Advanced Video Codec
Format profile : High@L4.1
Format settings : CABAC / 5 Ref Frames
Format settings, CABAC : Yes
Format settings, RefFrames : 5 frames
Codec ID : V_MPEG4/ISO/AVC
Duration : 1 h 7 min
Bit rate : 2 232 kb/s
Width : 1 280 pixels
Height : 720 pixels
Display aspect ratio : 16:9
Frame rate mode : Constant
Frame rate : 25.000 FPS
Color space : YUV
Chroma subsampling : 4:2:0
Bit depth : 8 bits
Scan type : Progressive
Bits/(Pixel*Frame) : 0.097
Stream size : 1.05 GiB (92%)
Writing library : x264 core 155 r2901 7d0ff22
Encoding settings : cabac=1 / ref=5 / deblock=1:0:0 / analyse=0x3:0x133 / me=umh / subme=9 / psy=1 / psy_rd=1.00:0.00 / mixed_ref=1 / me_range=16 / chroma_me=1 / trellis=2 / 8x8dct=1 / cqm=0 / deadzone=21,11 / fast_pskip=1 / chroma_qp_offset=-2 / threads=22 / lookahead_threads=1 / sliced_threads=0 / nr=0 / decimate=1 / interlaced=0 / bluray_compat=0 / constrained_intra=0 / bframes=3 / b_pyramid=2 / b_adapt=1 / b_bias=0 / direct=3 / weightb=1 / open_gop=0 / weightp=2 / keyint=250 / keyint_min=25 / scenecut=40 / intra_refresh=0 / rc_lookahead=50 / rc=crf / mbtree=1 / crf=18.0 / qcomp=0.60 / qpmin=10 / qpmax=69 / qpstep=4 / ip_ratio=1.40 / aq=1:1.00
Default : Yes
Forced : No
Color range : Limited
Matrix coefficients : BT.709

Audio
ID : 2
Format : MPEG Audio
Format version : Version 1
Format profile : Layer 2
Codec ID : A_MPEG/L2
Codec ID/Hint : MP2
Duration : 1 h 7 min
Bit rate mode : Constant
Bit rate : 192 kb/s
Channel(s) : 2 channels
Sampling rate : 48.0 kHz
Frame rate : 41.667 FPS (1152 SPF)
Compression mode : Lossy
Stream size : 92.8 MiB (8%)
Default : Yes
Forced : No





I Know Who You Are S01E08


I Know Who You Are S01E08


I Know Who You Are S01E08


I Know Who You Are S01E08


I Know Who You Are S01E08

All episodes