Featured TV Shows


I May Destroy You S01E07

Posted By: Tavaz
1080p (FullHD) / HDTV IMDb
I May Destroy You S01E07

I May Destroy You S01E07
HDTV | MKV | 1920x1080 | English | H264 @ 3131 kbps | AC-3 @ 192 kbps | 28 min 4 s | 681 MiB
Subtitles: English
Genre: Drama


Set in London, where gratification is only an app away, the story centers on Arabella, a carefree, self-assured Londoner with a group of great friends, a boyfriend in Italy, and a burgeoning writing career. But when her drink is spiked, she must question and rebuild every element of her life.

00d94968ef9dacfa00baa7fee99648b9.mkv (680.9 MB)



General
Unique ID : 339734931594510092398600331547303345997 (0xFF96915AC3F7D0388AB4FF429D71FF4D)
Complete name : ./00d94968ef9dacfa00baa7fee99648b9.mkv
Format : Matroska
Format version : Version 4 / Version 2
File size : 681 MiB
Duration : 28 min 4 s
Overall bit rate : 3 391 kb/s
Encoded date : UTC 2020-06-29 22:14:33
Writing application : mkv2rls h264-tv
Writing library : mkv2rls h264-tv

Video
ID : 1
Format : AVC
Format/Info : Advanced Video Codec
Format profile : High@L4
Format settings : CABAC / 4 Ref Frames
Format settings, CABAC : Yes
Format settings, RefFrames : 4 frames
Codec ID : V_MPEG4/ISO/AVC
Duration : 28 min 4 s
Bit rate : 3 132 kb/s
Width : 1 920 pixels
Height : 1 080 pixels
Display aspect ratio : 16:9
Frame rate mode : Constant
Frame rate : 25.000 FPS
Standard : Component
Color space : YUV
Chroma subsampling : 4:2:0
Bit depth : 8 bits
Scan type : MBAFF
Scan type, store method : Interleaved fields
Scan order : Top Field First
Bits/(Pixel*Frame) : 0.060
Stream size : 629 MiB (92%)
Language : English
Default : Yes
Forced : No
Color range : Limited
Color primaries : BT.709
Transfer characteristics : BT.709
Matrix coefficients : BT.709

Audio
ID : 3
Format : AC-3
Format/Info : Audio Coding 3
Format settings, Endianness : Big
Codec ID : A_AC3
Duration : 28 min 4 s
Bit rate mode : Constant
Bit rate : 192 kb/s
Channel(s) : 2 channels
Channel positions : Front: L R
Sampling rate : 48.0 kHz
Frame rate : 31.250 FPS (1536 SPF)
Bit depth : 16 bits
Compression mode : Lossy
Delay relative to video : 311 ms
Stream size : 38.6 MiB (6%)
Language : English
Service kind : Complete Main
Default : Yes
Forced : No

Text
ID : 2
Format : UTF-8
Codec ID : S_TEXT/UTF8
Codec ID/Info : UTF-8 Plain Text
Language : English
Default : No
Forced : No





I May Destroy You S01E07


I May Destroy You S01E07


I May Destroy You S01E07


I May Destroy You S01E07


I May Destroy You S01E07

All episodes