Featured TV Shows


Ice S02E09

Posted By: Tavaz
1080p (FullHD) / WEB-DL IMDb
Ice S02E09

Ice S02E09
WEB-DL | MKV | 1920x1080 | English | H264 @ 9456 kbps | E-AC-3 @ 640 kbps | 43 min 45 s | 3.09 GiB
Subtitles: English
Genre: Crime, Drama


A diamond dealer navigates the culturally diverse and treacherous world of the diamond business.

fd9b00cc14894b1694d2dca31535afd4.mkv (3.1 GB)



General
Unique ID : 29854028408018328881052702640577937605 (0x1675AD3DFDB81745AFAE2A20188380C5)
Complete name : ./fd9b00cc14894b1694d2dca31535afd4.mkv
Format : Matroska
Format version : Version 4 / Version 2
File size : 3.09 GiB
Duration : 43 min 45 s
Overall bit rate : 10.1 Mb/s
Encoded date : UTC 2019-06-06 01:09:27
Writing application : mkvmerge v34.0.0 ('Sight and Seen') 64-bit
Writing library : libebml v1.3.7 + libmatroska v1.5.0

Video
ID : 1
Format : AVC
Format/Info : Advanced Video Codec
Format profile : High@L4
Format settings : CABAC / 4 Ref Frames
Format settings, CABAC : Yes
Format settings, RefFrames : 4 frames
Codec ID : V_MPEG4/ISO/AVC
Duration : 43 min 44 s
Bit rate mode : Constant
Bit rate : 9 456 kb/s
Nominal bit rate : 10 000 kb/s
Width : 1 920 pixels
Height : 1 080 pixels
Display aspect ratio : 16:9
Frame rate mode : Constant
Frame rate : 23.976 (24000/1001) FPS
Color space : YUV
Chroma subsampling : 4:2:0
Bit depth : 8 bits
Scan type : Progressive
Bits/(Pixel*Frame) : 0.190
Stream size : 2.89 GiB (94%)
Default : Yes
Forced : No
Color range : Limited
Color primaries : BT.709
Transfer characteristics : BT.709
Matrix coefficients : BT.709

Audio
ID : 2
Format : E-AC-3
Format/Info : Enhanced Audio Coding 3
Format settings, Endianness : Big
Codec ID : A_EAC3
Duration : 43 min 45 s
Bit rate mode : Constant
Bit rate : 640 kb/s
Channel(s) : 6 channels
Channel positions : Front: L C R, Side: L R, LFE
Sampling rate : 48.0 kHz
Frame rate : 187.500 FPS (256 SPF)
Compression mode : Lossy
Stream size : 200 MiB (6%)
Language : English
Service kind : Complete Main
Default : Yes
Forced : No

Text
ID : 3
Format : UTF-8
Codec ID : S_TEXT/UTF8
Codec ID/Info : UTF-8 Plain Text
Duration : 42 min 10 s
Bit rate : 76 b/s
Count of elements : 916
Stream size : 23.6 KiB (0%)
Title : SDH
Language : English
Default : No
Forced : No





Ice S02E09


Ice S02E09


Ice S02E09


Ice S02E09


Ice S02E09

All episodes