Index
# A B C D E F G H I J K L M N O P Q R S T U V W Y Z
Tags
Language
Tags

Featured TV Shows


Ozark S01E10

Posted By: Tavaz
1080p (FullHD) / WEBRip IMDb
Ozark S01E10

Ozark S01E10
WEBRip | MKV | 1920x1080 | English | H264 @ 8984 kbps | E-AC-3 @ 224 kbps | 42 min 12 s | 2.72 GiB
Subtitles: English
Genre: Crime, Drama


A financial adviser drags his family from Chicago to the Missouri Ozarks, where he must launder $500 million in five years to appease a drug boss.

in.search.of.monsters.s01e10.the.ozark.howler.1080p.web.h264-tbs.mkv (2.7 GB)



General
Unique ID : 127232724851068623487609149829223924862 (0x5FB821A7FEF9C5549E3594EA047DC47E)
Complete name : ./in.search.of.monsters.s01e10.the.ozark.howler.1080p.web.h264-tbs.mkv
Format : Matroska
Format version : Version 4 / Version 2
File size : 2.72 GiB
Duration : 42 min 12 s
Overall bit rate : 9 211 kb/s
Encoded date : UTC 2019-06-06 07:18:21
Writing application : mkvmerge v33.1.0 ('Primrose') 64-bit
Writing library : libebml v1.3.7 + libmatroska v1.5.0

Video
ID : 1
Format : AVC
Format/Info : Advanced Video Codec
Format profile : High@L4
Format settings : CABAC / 4 Ref Frames
Format settings, CABAC : Yes
Format settings, RefFrames : 4 frames
Codec ID : V_MPEG4/ISO/AVC
Duration : 42 min 12 s
Bit rate mode : Constant
Bit rate : 8 984 kb/s
Nominal bit rate : 10 000 kb/s
Width : 1 920 pixels
Height : 1 080 pixels
Display aspect ratio : 16:9
Frame rate mode : Constant
Frame rate : 23.976 (24000/1001) FPS
Color space : YUV
Chroma subsampling : 4:2:0
Bit depth : 8 bits
Scan type : Progressive
Bits/(Pixel*Frame) : 0.181
Stream size : 2.65 GiB (98%)
Language : English
Default : Yes
Forced : No
Color range : Limited
Color primaries : BT.709
Transfer characteristics : BT.709
Matrix coefficients : BT.709

Audio
ID : 2
Format : E-AC-3
Format/Info : Enhanced Audio Coding 3
Format settings, Endianness : Big
Codec ID : A_EAC3
Duration : 42 min 12 s
Bit rate mode : Constant
Bit rate : 224 kb/s
Channel(s) : 2 channels
Channel positions : Front: L R
Sampling rate : 48.0 kHz
Frame rate : 187.500 FPS (256 SPF)
Compression mode : Lossy
Stream size : 67.6 MiB (2%)
Language : English
Service kind : Complete Main
Default : Yes
Forced : No

Text
ID : 3
Format : UTF-8
Codec ID : S_TEXT/UTF8
Codec ID/Info : UTF-8 Plain Text
Duration : 42 min 0 s
Bit rate : 101 b/s
Count of elements : 800
Stream size : 31.2 KiB (0%)
Language : English
Default : No
Forced : No





Ozark S01E10


Ozark S01E10


Ozark S01E10


Ozark S01E10


Ozark S01E10

All episodes