Featured TV Shows


Inside Edge S02E10

Posted By: Tavaz
720p (HD) / WEB-DL IMDb
Inside Edge S02E10

Inside Edge S02E10
WEB-DL | MKV | 1280x720 | Hindi | H264 @ 3856 kbps | E-AC-3 @ 640 kbps | 57 min 39 s | 1.81 GiB
Subtitles: English
Genre: Drama


The story of the Mumbai Mavericks, a T20 cricket franchise playing in the Powerplay League. Set in a landscape of conflicting interests, where selfishness is almost a virtue, where sex, money, and power are mere means to an end, Inside Edge is a story that pulls no punches, minces no words, and takes no prisoners. Come witness the game behind the game.

2771a77d0e414ef78e618e1908b2af5b.mkv (1.8 GB)



General
Unique ID : 328259491688324573781408011305799469259 (0xF6F47A7C2B95D150B97C1A6DEEB948CB)
Complete name : ./2771a77d0e414ef78e618e1908b2af5b.mkv
Format : Matroska
Format version : Version 4 / Version 2
File size : 1.81 GiB
Duration : 57 min 39 s
Overall bit rate : 4 499 kb/s
Encoded date : UTC 2019-12-06 09:14:45
Writing application : mkvmerge v19.0.0 ('Brave Captain') 64-bit
Writing library : libebml v1.3.5 + libmatroska v1.4.8

Video
ID : 1
Format : AVC
Format/Info : Advanced Video Codec
Format profile : High@L3.1
Format settings : CABAC / 4 Ref Frames
Format settings, CABAC : Yes
Format settings, RefFrames : 4 frames
Codec ID : V_MPEG4/ISO/AVC
Duration : 57 min 39 s
Bit rate mode : Constant
Bit rate : 3 857 kb/s
Nominal bit rate : 6 000 kb/s
Width : 1 280 pixels
Height : 720 pixels
Display aspect ratio : 16:9
Frame rate mode : Constant
Frame rate : 25.000 FPS
Color space : YUV
Chroma subsampling : 4:2:0
Bit depth : 8 bits
Scan type : Progressive
Bits/(Pixel*Frame) : 0.167
Stream size : 1.55 GiB (86%)
Default : Yes
Forced : No
Color range : Limited
Color primaries : BT.709
Transfer characteristics : BT.709
Matrix coefficients : BT.709

Audio
ID : 2
Format : E-AC-3
Format/Info : Enhanced Audio Coding 3
Format settings, Endianness : Big
Codec ID : A_EAC3
Duration : 57 min 39 s
Bit rate mode : Constant
Bit rate : 640 kb/s
Channel(s) : 6 channels
Channel positions : Front: L C R, Side: L R, LFE
Sampling rate : 48.0 kHz
Frame rate : 187.500 FPS (256 SPF)
Compression mode : Lossy
Stream size : 264 MiB (14%)
Language : Hindi
Service kind : Complete Main
Default : Yes
Forced : No

Text
ID : 3
Format : UTF-8
Codec ID : S_TEXT/UTF8
Codec ID/Info : UTF-8 Plain Text
Duration : 55 min 34 s
Bit rate : 55 b/s
Count of elements : 645
Stream size : 22.8 KiB (0%)
Title : English
Language : English
Default : Yes
Forced : No





Inside Edge S02E10


Inside Edge S02E10


Inside Edge S02E10


Inside Edge S02E10


Inside Edge S02E10

All episodes