Featured TV Shows


Jane the Virgin S04E06

Posted By: Tavaz
720p (HD) / WEB-DL IMDb
Jane the Virgin S04E06

Jane the Virgin S04E06
WEB-DL | MKV | 1280x720 | English | H264 @ 3625 kbps | E-AC-3 @ 640 kbps | 42 min 3 s | 1.25 GiB
Subtitles: English
Genre: Comedy, Drama

A comedy-drama following a chaste young woman who is accidentally impregnated via artificial insemination as she struggles to inform her devoutly religious family and make the right choices concerning the child. Based on the telenovela "Juana la virgen."

Jane.the.Virgin.S04E06.Chapter.Seventy.720p.AMZN.WEB-DL.DD5.1.H.264-AJP69.mkv (1.3 GB)



General
Unique ID : 308772593899774772104103202336628204956 (0xE84B703EE642F3CB3847D9078FD6E59C)
Complete name : ./Jane.the.Virgin.S04E06.Chapter.Seventy.720p.AMZN.WEB-DL.DD5.1.H.264-AJP69.mkv
Format : Matroska
Format version : Version 4 / Version 2
File size : 1.25 GiB
Duration : 42 min 3 s
Overall bit rate mode : Variable
Overall bit rate : 4 268 kb/s
Encoded date : UTC 2017-11-18 12:21:01
Writing application : mkvmerge v17.0.0 ('Be Ur Friend') 64-bit
Writing library : libebml v1.3.5 + libmatroska v1.4.8

Video
ID : 1
Format : AVC
Format/Info : Advanced Video Codec
Format profile : High@L3.1
Format settings : CABAC / 5 Ref Frames
Format settings, CABAC : Yes
Format settings, RefFrames : 5 frames
Codec ID : V_MPEG4/ISO/AVC
Duration : 42 min 3 s
Bit rate mode : Variable
Bit rate : 3 626 kb/s
Maximum bit rate : 4 500 kb/s
Width : 1 280 pixels
Height : 720 pixels
Display aspect ratio : 16:9
Frame rate mode : Constant
Frame rate : 23.976 (24000/1001) FPS
Color space : YUV
Chroma subsampling : 4:2:0
Bit depth : 8 bits
Scan type : Progressive
Bits/(Pixel*Frame) : 0.164
Stream size : 1.07 GiB (85%)
Default : Yes
Forced : No
Color range : Limited
Color primaries : BT.709
Transfer characteristics : BT.709
Matrix coefficients : BT.709

Audio
ID : 2
Format : E-AC-3
Format/Info : Enhanced Audio Coding 3
Format settings, Endianness : Big
Codec ID : A_EAC3
Duration : 42 min 3 s
Bit rate mode : Constant
Bit rate : 640 kb/s
Channel(s) : 6 channels
Channel positions : Front: L C R, Side: L R, LFE
Sampling rate : 48.0 kHz
Frame rate : 187.500 FPS (256 SPF)
Compression mode : Lossy
Stream size : 193 MiB (15%)
Language : English
Service kind : Complete Main
Default : Yes
Forced : No

Text
ID : 3
Format : UTF-8
Codec ID : S_TEXT/UTF8
Codec ID/Info : UTF-8 Plain Text
Duration : 41 min 42 s
Bit rate : 105 b/s
Count of elements : 1037
Stream size : 32.2 KiB (0%)
Language : English
Default : No
Forced : No





Jane the Virgin S04E06


Jane the Virgin S04E06


Jane the Virgin S04E06


Jane the Virgin S04E06


Jane the Virgin S04E06

All episodes