Featured TV Shows


Jane the Virgin S05E02

Posted By: Tavaz
1080p (FullHD) / WEBRip IMDb
Jane the Virgin S05E02

Jane the Virgin S05E02
WEBRip | MKV | 1920x1080 | English | H264 @ 8000 kbps | AAC @ 125 kbps | 42 min 12 s | 2.35 GiB
Genre: Comedy, Drama

A comedy-drama following a chaste young woman who is accidentally impregnated via artificial insemination as she struggles to inform her devoutly religious family and make the right choices concerning the child. Based on the telenovela "Juana la virgen."

jane.the.virgin.s05e02.1080p.web.h264-tbs.mkv (2.4 GB)



General
Unique ID : 225852967888356756249834869446313546289 (0xA9E9B30B1FCA3B2306373652321C9231)
Complete name : ./jane.the.virgin.s05e02.1080p.web.h264-tbs.mkv
Format : Matroska
Format version : Version 4 / Version 2
File size : 2.35 GiB
Duration : 42 min 12 s
Overall bit rate : 7 976 kb/s
Encoded date : UTC 2019-04-04 05:06:50
Writing application : mkvmerge v24.0.0 ('Beyond The Pale') 64-bit
Writing library : libebml v1.3.6 + libmatroska v1.4.9

Video
ID : 1
Format : AVC
Format/Info : Advanced Video Codec
Format profile : High@L4
Format settings : CABAC / 3 Ref Frames
Format settings, CABAC : Yes
Format settings, RefFrames : 3 frames
Codec ID : V_MPEG4/ISO/AVC
Duration : 42 min 12 s
Bit rate mode : Constant
Bit rate : 8 000 kb/s
Width : 1 920 pixels
Height : 1 080 pixels
Display aspect ratio : 16:9
Frame rate mode : Constant
Frame rate : 23.976 (24000/1001) FPS
Color space : YUV
Chroma subsampling : 4:2:0
Bit depth : 8 bits
Scan type : Progressive
Bits/(Pixel*Frame) : 0.161
Stream size : 2.31 GiB (98%)
Default : Yes
Forced : No

Audio
ID : 2
Format : AAC
Format/Info : Advanced Audio Codec
Format profile : LC
Codec ID : A_AAC-2
Duration : 42 min 12 s
Bit rate : 126 kb/s
Channel(s) : 2 channels
Channel positions : Front: L R
Sampling rate : 44.1 kHz
Frame rate : 43.066 FPS (1024 SPF)
Compression mode : Lossy
Delay relative to video : -36 ms
Stream size : 37.9 MiB (2%)
Language : English
Default : Yes
Forced : No





Jane the Virgin S05E02


Jane the Virgin S05E02


Jane the Virgin S05E02


Jane the Virgin S05E02


Jane the Virgin S05E02

All episodes