Featured TV Shows


Jane the Virgin S05E02

Posted By: Tavaz
Jane the Virgin S05E02

Jane the Virgin S05E02

A comedy-drama following a chaste young woman who is accidentally impregnated via artificial insemination as she struggles to inform her devoutly religious family and make the right choices concerning the child. Based on the telenovela "Juana la virgen."

38956310b1004bb9800cce23e4f43819.avi (329.8 MB)



General
Complete name : ./38956310b1004bb9800cce23e4f43819.avi
Format : AVI
Format/Info : Audio Video Interleave
File size : 330 MiB
Duration : 42 min 12 s
Overall bit rate : 1 092 kb/s
Writing application : Lavf57.81.100

Video
ID : 0
Format : xvid
Codec ID : xvid
Duration : 42 min 12 s
Bit rate : 952 kb/s
Width : 640 pixels
Height : 360 pixels
Display aspect ratio : 16:9
Frame rate : 23.976 (24000/1001) FPS
Scan type : Progressive
Bits/(Pixel*Frame) : 0.172
Stream size : 288 MiB (87%)

Audio
ID : 1
Format : MPEG Audio
Format version : Version 1
Format profile : Layer 3
Format settings : Joint stereo / MS Stereo
Mode : Joint stereo
Mode extension : MS Stereo
Codec ID : 55
Codec ID/Hint : MP3
Duration : 42 min 12 s
Bit rate mode : Constant
Bit rate : 128 kb/s
Channel(s) : 2 channels
Sampling rate : 44.1 kHz
Compression mode : Lossy
Stream size : 38.6 MiB (12%)
Alignment : Aligned on interleaves
Interleave, duration : 26 ms (0.63 video frame)
Interleave, preload duration : 78 ms
Writing library : LAME3.99.5





Jane the Virgin S05E02


Jane the Virgin S05E02


Jane the Virgin S05E02


Jane the Virgin S05E02


Jane the Virgin S05E02

All episodes