Featured TV Shows


Jane the Virgin S05E06

Posted By: Tavaz
1080p (FullHD) / WEBRip IMDb
Jane the Virgin S05E06

Jane the Virgin S05E06
WEBRip | MKV | 1920x1080 | English | H264 @ 10374 kbps | E-AC-3 @ 640 kbps | 41 min 43 s | 3.21 GiB
Subtitles: English
Genre: Comedy, Drama


A comedy-drama following a chaste young woman who is accidentally impregnated via artificial insemination as she struggles to inform her devoutly religious family and make the right choices concerning the child. Based on the telenovela "Juana la virgen."

Jane.The.Virgin.S05E06.1080p.WEB.H264-AMCON.mkv (3.2 GB)



General
Unique ID : 94344347459329709489225571178947513707 (0x46FA0F756D9407815E9D2A63B8DF8D6B)
Complete name : ./Jane.The.Virgin.S05E06.1080p.WEB.H264-AMCON.mkv
Format : Matroska
Format version : Version 4 / Version 2
File size : 3.21 GiB
Duration : 41 min 43 s
Overall bit rate : 11.0 Mb/s
Encoded date : UTC 2019-05-02 05:04:42
Writing application : mkvmerge v33.1.0 ('Primrose') 64-bit
Writing library : libebml v1.3.7 + libmatroska v1.5.0

Video
ID : 1
Format : AVC
Format/Info : Advanced Video Codec
Format profile : High@L4
Format settings : CABAC / 4 Ref Frames
Format settings, CABAC : Yes
Format settings, RefFrames : 4 frames
Codec ID : V_MPEG4/ISO/AVC
Duration : 41 min 43 s
Bit rate : 10.4 Mb/s
Width : 1 920 pixels
Height : 1 080 pixels
Display aspect ratio : 16:9
Frame rate mode : Constant
Frame rate : 23.976 (24000/1001) FPS
Color space : YUV
Chroma subsampling : 4:2:0
Bit depth : 8 bits
Scan type : Progressive
Bits/(Pixel*Frame) : 0.209
Stream size : 3.02 GiB (94%)
Language : English
Default : Yes
Forced : No
Color range : Limited
Color primaries : BT.709
Transfer characteristics : BT.709
Matrix coefficients : BT.709

Audio
ID : 2
Format : E-AC-3
Format/Info : Enhanced Audio Coding 3
Format settings, Endianness : Big
Codec ID : A_EAC3
Duration : 41 min 43 s
Bit rate mode : Constant
Bit rate : 640 kb/s
Channel(s) : 6 channels
Channel positions : Front: L C R, Side: L R, LFE
Sampling rate : 48.0 kHz
Frame rate : 187.500 FPS (256 SPF)
Compression mode : Lossy
Stream size : 191 MiB (6%)
Language : English
Service kind : Complete Main
Default : Yes
Forced : No

Text
ID : 3
Format : UTF-8
Codec ID : S_TEXT/UTF8
Codec ID/Info : UTF-8 Plain Text
Duration : 41 min 10 s
Bit rate : 95 b/s
Count of elements : 909
Stream size : 28.8 KiB (0%)
Title : English
Language : English
Default : No
Forced : No





Jane the Virgin S05E06


Jane the Virgin S05E06


Jane the Virgin S05E06


Jane the Virgin S05E06


Jane the Virgin S05E06

All episodes