Featured TV Shows


Jane the Virgin S02E16

Posted By: Tavaz
720p (HD) / HDTV IMDb
Jane the Virgin S02E16

Jane the Virgin S02E16
HDTV | MKV | 1280x720 | H264 @ 4370 kbps | AC-3 @ 384 kbps | 41 min 56 s | 1.42 GiB
Genre: Comedy, Drama

A comedy-drama following a chaste young woman who is accidentally impregnated via artificial insemination as she struggles to inform her devoutly religious family and make the right choices concerning the child. Based on the telenovela "Juana la virgen."

Jane.the.Virgin.S02E16.720p.HDTV.x264-AVS.mkv (1.4 GB)
NFpkL3lWeXZLLy8zYXU2RldhM1g2ZEszM1V3NXRNdGY0UzA4SUpNVUNBaWc5TlZ1OGxhQ1ZoMzJBb3JMbE84aHVWRk9IVzhyVGsxQk1LaVIwcFNLUWc9PQ==.TXT (1.4 KB)



General
Unique ID : 337857778832377973345489781313336998582 (0xFE2D0A93EE43C25FA8898102C3F77AB6)
Complete name : ./Jane.the.Virgin.S02E16.720p.HDTV.x264-AVS.mkv
Format : Matroska
Format version : Version 2
File size : 1.42 GiB
Duration : 41 min 56 s
Overall bit rate : 4 851 kb/s
Writing application : mkv 2.1.1 AVS
Writing library : mkv 2.1.1 AVS

Video
ID : 1
Format : AVC
Format/Info : Advanced Video Codec
Format profile : High@L4.1
Format settings : CABAC / 5 Ref Frames
Format settings, CABAC : Yes
Format settings, RefFrames : 5 frames
Codec ID : V_MPEG4/ISO/AVC
Duration : 41 min 56 s
Bit rate : 4 371 kb/s
Width : 1 280 pixels
Height : 720 pixels
Display aspect ratio : 16:9
Frame rate mode : Constant
Frame rate : 23.976 (24000/1001) FPS
Color space : YUV
Chroma subsampling : 4:2:0
Bit depth : 8 bits
Scan type : Progressive
Bits/(Pixel*Frame) : 0.198
Stream size : 1.28 GiB (90%)
Writing library : x264 core 148 r2665 a01e339
Encoding settings : cabac=1 / ref=5 / deblock=1:0:0 / analyse=0x3:0x113 / me=umh / subme=8 / psy=1 / psy_rd=1.00:0.00 / mixed_ref=1 / me_range=16 / chroma_me=1 / trellis=1 / 8x8dct=1 / cqm=0 / deadzone=21,11 / fast_pskip=1 / chroma_qp_offset=-2 / threads=22 / lookahead_threads=3 / sliced_threads=0 / nr=0 / decimate=1 / interlaced=0 / bluray_compat=0 / constrained_intra=0 / bframes=3 / b_pyramid=2 / b_adapt=2 / b_bias=0 / direct=3 / weightb=1 / open_gop=0 / weightp=2 / keyint=250 / keyint_min=23 / scenecut=40 / intra_refresh=0 / rc_lookahead=50 / rc=crf / mbtree=1 / crf=18.0 / qcomp=0.60 / qpmin=0 / qpmax=69 / qpstep=4 / ip_ratio=1.40 / aq=1:1.00
Language : English
Default : Yes
Forced : No
Color range : Limited
Matrix coefficients : BT.709

Audio
ID : 2
Format : AC-3
Format/Info : Audio Coding 3
Format settings, Endianness : Big
Codec ID : A_AC3
Duration : 41 min 56 s
Bit rate mode : Constant
Bit rate : 384 kb/s
Channel(s) : 6 channels
Channel positions : Front: L C R, Side: L R, LFE
Sampling rate : 48.0 kHz
Frame rate : 31.250 FPS (1536 SPF)
Bit depth : 16 bits
Compression mode : Lossy
Stream size : 115 MiB (8%)
Service kind : Complete Main
Default : Yes
Forced : No





Jane the Virgin S02E16


Jane the Virgin S02E16


Jane the Virgin S02E16


Jane the Virgin S02E16


Jane the Virgin S02E16

All episodes