Featured TV Shows


Jane the Virgin S02E17

Posted By: Tavaz
1080p (FullHD) / WEB-DL IMDb
Jane the Virgin S02E17

Jane the Virgin S02E17
WEB-DL | MKV | 1920x1080 | English | H264 @ 4895 kbps | AC-3 @ 384 kbps | 41 min 50 s | 1.57 GiB
Genre: Comedy, Drama


A comedy-drama following a chaste young woman who is accidentally impregnated via artificial insemination as she struggles to inform her devoutly religious family and make the right choices concerning the child. Based on the telenovela "Juana la virgen."

37132e954f221cf0739b729fcbb7f241b64d14f6.srt (74.6 KB)
37132e954f221cf0739b729fcbb7f241b64d14f6.mkv (1.6 GB)



General
Unique ID : 48478871718941585908707804229449963630 (0x2478B0EA0D81C02FEDB2F6890232586E)
Complete name : ./37132e954f221cf0739b729fcbb7f241b64d14f6.mkv
Format : Matroska
Format version : Version 4 / Version 2
File size : 1.57 GiB
Duration : 41 min 50 s
Overall bit rate : 5 387 kb/s
Movie name : Jane.the.Virgin.S02E17.1080p.WEB-DL.DD5.1.H264-RARBG
Encoded date : UTC 2016-04-13 01:58:48
Writing application : mkvmerge v9.0.1 ('Obstacles') 64bit
Writing library : libebml v1.3.3 + libmatroska v1.4.4
Cover : Yes
Attachments : small_cover.jpg / cover.jpg / cover_land.jpg / small_cover_land.jpg

Video
ID : 1
Format : AVC
Format/Info : Advanced Video Codec
Format profile : High@L4
Format settings : CABAC / 4 Ref Frames
Format settings, CABAC : Yes
Format settings, RefFrames : 4 frames
Codec ID : V_MPEG4/ISO/AVC
Duration : 41 min 50 s
Bit rate : 4 896 kb/s
Width : 1 920 pixels
Height : 1 080 pixels
Display aspect ratio : 16:9
Frame rate mode : Constant
Frame rate : 23.976 (24000/1001) FPS
Color space : YUV
Chroma subsampling : 4:2:0
Bit depth : 8 bits
Scan type : Progressive
Bits/(Pixel*Frame) : 0.098
Stream size : 1.43 GiB (91%)
Title : Jane.the.Virgin.S02E17.1080p.WEB-DL.DD5.1.H264-RARBG
Language : English
Default : Yes
Forced : No
Color range : Limited
Color primaries : BT.709
Transfer characteristics : BT.709
Matrix coefficients : BT.709

Audio
ID : 2
Format : AC-3
Format/Info : Audio Coding 3
Format settings, Endianness : Big
Codec ID : A_AC3
Duration : 41 min 50 s
Bit rate mode : Constant
Bit rate : 384 kb/s
Channel(s) : 6 channels
Channel positions : Front: L C R, Side: L R, LFE
Sampling rate : 48.0 kHz
Frame rate : 31.250 FPS (1536 SPF)
Bit depth : 16 bits
Compression mode : Lossy
Stream size : 115 MiB (7%)
Title : Jane.the.Virgin.S02E17.1080p.WEB-DL.DD5.1.H264-RARBG
Language : English
Service kind : Complete Main
Default : Yes
Forced : No

Text
ID : 3
Format : UTF-8
Codec ID : S_TEXT/UTF8
Codec ID/Info : UTF-8 Plain Text
Default : Yes
Forced : No





Jane the Virgin S02E17


Jane the Virgin S02E17


Jane the Virgin S02E17


Jane the Virgin S02E17


Jane the Virgin S02E17

All episodes