Featured TV Shows


Jane the Virgin S04E03

Posted By: Tavaz
SD / WEBRip IMDb
Jane the Virgin S04E03

Jane the Virgin S04E03
WEB-DL | MKV | 640x480 | German / English | H264 @ 1350 kbps | AC-3 @ 384 kbps | 42 min 43 s | 644 MiB
Subtitles: German, Italian, Spanish, French, English
Genre: Comedy, Drama

A comedy-drama following a chaste young woman who is accidentally impregnated via artificial insemination as she struggles to inform her devoutly religious family and make the right choices concerning the child. Based on the telenovela "Juana la virgen."

S04E03.mkv (643.8 MB)



General
Unique ID : 100103033572935877898901890862380907528 (0x4B4F249AE01D64DE9942C8787C4A7C08)
Complete name : ./JTV S04E03 German/S04E03.mkv
Format : Matroska
Format version : Version 4 / Version 2
File size : 644 MiB
Duration : 42 min 43 s
Overall bit rate mode : Variable
Overall bit rate : 2 107 kb/s
Encoded date : UTC 2018-07-13 19:47:47
Writing application : mkvmerge v24.0.0 ('Beyond The Pale') 64-bit
Writing library : libebml v1.3.6 + libmatroska v1.4.9

Video
ID : 1
Format : AVC
Format/Info : Advanced Video Codec
Format profile : Baseline@L3
Format settings : 3 Ref Frames
Format settings, CABAC : No
Format settings, RefFrames : 3 frames
Format settings, GOP : M=1, N=48
Codec ID : V_MPEG4/ISO/AVC
Duration : 42 min 42 s
Bit rate mode : Variable
Bit rate : 1 350 kb/s
Maximum bit rate : 2 025 kb/s
Width : 640 pixels
Height : 480 pixels
Display aspect ratio : 16:9
Frame rate mode : Constant
Frame rate : 23.976 (24000/1001) FPS
Color space : YUV
Chroma subsampling : 4:2:0
Bit depth : 8 bits
Scan type : Progressive
Bits/(Pixel*Frame) : 0.183
Stream size : 408 MiB (63%)
Writing library : x264 core 148
Encoding settings : cabac=0 / ref=3 / deblock=1:0:0 / analyse=0x1:0x111 / me=umh / subme=9 / psy=1 / psy_rd=1.00:0.00 / mixed_ref=1 / me_range=24 / chroma_me=1 / trellis=1 / 8x8dct=0 / cqm=0 / deadzone=21,11 / fast_pskip=1 / chroma_qp_offset=-2 / threads=8 / lookahead_threads=1 / sliced_threads=0 / nr=0 / decimate=1 / interlaced=0 / bluray_compat=0 / stitchable=1 / constrained_intra=0 / bframes=0 / weightp=0 / keyint=48 / keyint_min=25 / scenecut=0 / intra_refresh=0 / rc_lookahead=48 / rc=2pass / mbtree=1 / bitrate=1350 / ratetol=1.0 / qcomp=0.50 / qpmin=8 / qpmax=51 / qpstep=4 / cplxblur=20.0 / qblur=0.5 / vbv_maxrate=2025 / vbv_bufsize=2700 / nal_hrd=vbr / filler=0 / ip_ratio=1.40 / aq=1:1.00
Language : English
Default : Yes
Forced : No

Audio #1
ID : 2
Format : AC-3
Format/Info : Audio Coding 3
Format settings, Endianness : Big
Codec ID : A_AC3
Duration : 42 min 43 s
Bit rate mode : Constant
Bit rate : 384 kb/s
Channel(s) : 6 channels
Channel positions : Front: L C R, Side: L R, LFE
Sampling rate : 48.0 kHz
Frame rate : 31.250 FPS (1536 SPF)
Bit depth : 16 bits
Compression mode : Lossy
Stream size : 117 MiB (18%)
Language : German
Service kind : Complete Main
Default : Yes
Forced : No

Audio #2
ID : 3
Format : AC-3
Format/Info : Audio Coding 3
Format settings, Endianness : Big
Codec ID : A_AC3
Duration : 42 min 43 s
Bit rate mode : Constant
Bit rate : 384 kb/s
Channel(s) : 6 channels
Channel positions : Front: L C R, Side: L R, LFE
Sampling rate : 48.0 kHz
Frame rate : 31.250 FPS (1536 SPF)
Bit depth : 16 bits
Compression mode : Lossy
Stream size : 117 MiB (18%)
Language : English
Service kind : Complete Main
Default : No
Forced : No

Text #1
ID : 4
Format : UTF-8
Codec ID : S_TEXT/UTF8
Codec ID/Info : UTF-8 Plain Text
Duration : 39 min 17 s
Bit rate : 1 b/s
Count of elements : 25
Stream size : 531 Bytes (0%)
Title : Forced
Language : German
Default : Yes
Forced : No

Text #2
ID : 5
Format : UTF-8
Codec ID : S_TEXT/UTF8
Codec ID/Info : UTF-8 Plain Text
Duration : 42 min 15 s
Bit rate : 87 b/s
Count of elements : 673
Stream size : 27.2 KiB (0%)
Title : German
Language : German
Default : No
Forced : No

Text #3
ID : 6
Format : UTF-8
Codec ID : S_TEXT/UTF8
Codec ID/Info : UTF-8 Plain Text
Duration : 41 min 52 s
Bit rate : 98 b/s
Count of elements : 1012
Stream size : 30.3 KiB (0%)
Title : English
Language : English
Default : No
Forced : No

Text #4
ID : 7
Format : UTF-8
Codec ID : S_TEXT/UTF8
Codec ID/Info : UTF-8 Plain Text
Duration : 42 min 15 s
Bit rate : 79 b/s
Count of elements : 660
Stream size : 24.7 KiB (0%)
Title : French
Language : French
Default : No
Forced : No

Text #5
ID : 8
Format : UTF-8
Codec ID : S_TEXT/UTF8
Codec ID/Info : UTF-8 Plain Text
Duration : 42 min 15 s
Bit rate : 81 b/s
Count of elements : 669
Stream size : 25.2 KiB (0%)
Title : Spanish
Language : Spanish
Default : No
Forced : No

Text #6
ID : 9
Format : UTF-8
Codec ID : S_TEXT/UTF8
Codec ID/Info : UTF-8 Plain Text
Duration : 42 min 15 s
Bit rate : 81 b/s
Count of elements : 673
Stream size : 25.2 KiB (0%)
Title : Italian
Language : Italian
Default : No
Forced : No





Jane the Virgin S04E03


Jane the Virgin S04E03


Jane the Virgin S04E03


Jane the Virgin S04E03


Jane the Virgin S04E03

All episodes