Featured TV Shows


Jane the Virgin S04E05

Posted By: Tavaz
1080p (FullHD) / WEB-DL IMDb
Jane the Virgin S04E05

Jane the Virgin S04E05
WEB-DL | MKV | 1920x1080 | English | H264 @ 12968 kbps | E-AC-3 @ 640 kbps | 42 min 20 s | 4.02 GiB
Subtitles: English
Genre: Comedy, Drama

A comedy-drama following a chaste young woman who is accidentally impregnated via artificial insemination as she struggles to inform her devoutly religious family and make the right choices concerning the child. Based on the telenovela "Juana la virgen."

34fd70e21a0648c49e8cfac1184d16e7.mkv (4.0 GB)



General
Unique ID : 4111867258790086415064888511880894942 (0x317EAB53F26B8F279436E14878619DE)
Complete name : ./34fd70e21a0648c49e8cfac1184d16e7.mkv
Format : Matroska
Format version : Version 4 / Version 2
File size : 4.02 GiB
Duration : 42 min 20 s
Overall bit rate mode : Variable
Overall bit rate : 13.6 Mb/s
Encoded date : UTC 2017-11-11 20:35:31
Writing application : mkvmerge v17.0.0 ('Be Ur Friend') 64-bit
Writing library : libebml v1.3.5 + libmatroska v1.4.8

Video
ID : 1
Format : AVC
Format/Info : Advanced Video Codec
Format profile : High@L4
Format settings : CABAC / 4 Ref Frames
Format settings, CABAC : Yes
Format settings, RefFrames : 4 frames
Codec ID : V_MPEG4/ISO/AVC
Duration : 42 min 20 s
Bit rate mode : Variable
Bit rate : 13.0 Mb/s
Maximum bit rate : 15.0 Mb/s
Width : 1 920 pixels
Height : 1 080 pixels
Display aspect ratio : 16:9
Frame rate mode : Constant
Frame rate : 23.976 (24000/1001) FPS
Color space : YUV
Chroma subsampling : 4:2:0
Bit depth : 8 bits
Scan type : Progressive
Bits/(Pixel*Frame) : 0.261
Stream size : 3.83 GiB (95%)
Default : Yes
Forced : No
Color range : Limited
Color primaries : BT.709
Transfer characteristics : BT.709
Matrix coefficients : BT.709

Audio
ID : 2
Format : E-AC-3
Format/Info : Enhanced Audio Coding 3
Format settings, Endianness : Big
Codec ID : A_EAC3
Duration : 42 min 20 s
Bit rate mode : Constant
Bit rate : 640 kb/s
Channel(s) : 6 channels
Channel positions : Front: L C R, Side: L R, LFE
Sampling rate : 48.0 kHz
Frame rate : 187.500 FPS (256 SPF)
Compression mode : Lossy
Stream size : 194 MiB (5%)
Language : English
Service kind : Complete Main
Default : Yes
Forced : No

Text
ID : 3
Format : UTF-8
Codec ID : S_TEXT/UTF8
Codec ID/Info : UTF-8 Plain Text
Duration : 41 min 46 s
Bit rate : 100 b/s
Count of elements : 1041
Stream size : 30.9 KiB (0%)
Language : English
Default : No
Forced : No





Jane the Virgin S04E05


Jane the Virgin S04E05


Jane the Virgin S04E05


Jane the Virgin S04E05


Jane the Virgin S04E05

All episodes