Featured TV Shows


Jane the Virgin S04E06

Posted By: Tavaz
SD / WEBRip IMDb
Jane the Virgin S04E06

Jane the Virgin S04E06
WEB-DL | MKV | 640x480 | German / English | H264 @ 1350 kbps | AC-3 @ 384 kbps | 42 min 20 s | 639 MiB
Subtitles: German, Italian, Spanish, French, English
Genre: Komödie, Drama

Die 23-jährige Studentin Jane Villanueva will Lehrerin werden, gerne ein Buch schreiben und ist noch Jungfrau. Von ihrer Großmutter hat sie gelernt: Telenovelas sind die beste Unterhaltung und man muss seine Jungfräulichkeit bewahren. Sie hält sich an diese Regel, weil sie nicht wie ihre Mutter Xiomara schon mit 16 Jahren Mutter werden will. Ihr Verlobter Michael, der bei der örtlichen Kriminalpolizei arbeitet, akzeptiert dies und ist bereit, bis zur Hochzeitsnacht mit dem Sex zu warten. Um finanziell über die Runden zu kommen, jobbt Jane in einem Hotel in Miami.

Auf einer Veranstaltung dieses Hotels trifft sie auf Rafael, den sie vor fünf Jahren schon einmal getroffen und geküsst hatte. Am nächsten Tag hat Jane einen Termin bei ihrer Frauenärztin, um einen Abstrich nehmen zu lassen. Dr. Alver ist jedoch nicht ganz bei der Sache, da sie ihre Frau am Vorabend mit ihrer Affäre erwischt hatte, und verwechselt die Zimmernummern, weshalb Jane aus Versehen künstlich befruchtet wird, was sie jedoch nicht direkt mitbekommt, da sie kurz eingeschlafen ist. Wie sich zwei Wochen später herausstellt, ist Jane schwanger. Der Vater ist niemand geringeres als Rafael, der Hotelerbe von vor fünf Jahren, der seinen Samen vor einer Chemotherapie hatte einfrieren lassen. Da Rafael und seine Frau Petra in einer Ehekrise stecken, wollte Petra sich von Rafaels Schwester, Dr. Alver, befruchten lassen. Jane muss sich entscheiden, ob sie das Kind behalten will oder nicht. Verkompliziert wird ihr Entscheidungsprozess durch die unterschiedlichen Interessen ihres Verlobten Michael, des biologischen Vaters des Kindes und dessen Ehefrau Petra.

Während Michael Roman, Rafaels besten Freund, beschattet, findet er heraus, dass dieser eine Affäre mit Petra hat. Roman wird später jedoch ermordet, weshalb Petra Rafael die Affäre verschweigt. Dieser findet es jedoch trotzdem heraus und möchte die Scheidung. Da die beiden noch nicht fünf Jahre verheiratet sind, würde Petra auf Grund eines Ehevertrages keinen Anteil des Vermögens bekommen, dies versucht sie jedoch mit allen Mitteln zu verhindern, unter anderem schlägt ihre Mutter ihr ein blaues Auge, wofür sie jedoch Rafael anzeigt. Später kann er dies jedoch mithilfe einer Angestellten widerlegen und trennt sich endgültig von Petra.

Jane erfährt unterdessen auch von Petras Affäre und berichtet dies Michael, da sie deshalb beschließt, das Baby nicht Rafael zu geben. Als sie allerdings herausfindet, dass Michael bereits über die Affäre Bescheid wusste, fühlt sie sich verletzt und trennt sich von ihm, da sie sich ursprünglich versprochen hatten, ehrlich zu sein. Am Abend trifft sie Rafael, welcher sich über seine Gefühle für Jane klar geworden ist, und die beiden küssen sich.

S04E06.mkv (639.0 MB)



General
Unique ID : 105046892613945212185114751641647545503 (0x4F074BACC4FB51B224D4BE4CC28F7C9F)
Complete name : ./JTV S04E06 German/S04E06.mkv
Format : Matroska
Format version : Version 4 / Version 2
File size : 639 MiB
Duration : 42 min 20 s
Overall bit rate mode : Variable
Overall bit rate : 2 110 kb/s
Encoded date : UTC 2018-07-13 19:48:08
Writing application : mkvmerge v24.0.0 ('Beyond The Pale') 64-bit
Writing library : libebml v1.3.6 + libmatroska v1.4.9

Video
ID : 1
Format : AVC
Format/Info : Advanced Video Codec
Format profile : Baseline@L3
Format settings : 3 Ref Frames
Format settings, CABAC : No
Format settings, RefFrames : 3 frames
Format settings, GOP : M=1, N=48
Codec ID : V_MPEG4/ISO/AVC
Duration : 42 min 20 s
Bit rate mode : Variable
Bit rate : 1 350 kb/s
Maximum bit rate : 2 025 kb/s
Width : 640 pixels
Height : 480 pixels
Display aspect ratio : 16:9
Frame rate mode : Constant
Frame rate : 23.976 (24000/1001) FPS
Color space : YUV
Chroma subsampling : 4:2:0
Bit depth : 8 bits
Scan type : Progressive
Bits/(Pixel*Frame) : 0.183
Stream size : 405 MiB (63%)
Writing library : x264 core 148 r2714 2daf636
Encoding settings : cabac=0 / ref=3 / deblock=1:0:0 / analyse=0x1:0x111 / me=umh / subme=9 / psy=1 / psy_rd=1.00:0.00 / mixed_ref=1 / me_range=24 / chroma_me=1 / trellis=1 / 8x8dct=0 / cqm=0 / deadzone=21,11 / fast_pskip=1 / chroma_qp_offset=-2 / threads=8 / lookahead_threads=1 / sliced_threads=0 / nr=0 / decimate=1 / interlaced=0 / bluray_compat=0 / stitchable=1 / constrained_intra=0 / bframes=0 / weightp=0 / keyint=48 / keyint_min=25 / scenecut=0 / intra_refresh=0 / rc_lookahead=48 / rc=2pass / mbtree=1 / bitrate=1350 / ratetol=1.0 / qcomp=0.50 / qpmin=8 / qpmax=51 / qpstep=4 / cplxblur=20.0 / qblur=0.5 / vbv_maxrate=2025 / vbv_bufsize=2700 / nal_hrd=vbr / filler=0 / ip_ratio=1.40 / aq=1:1.00
Language : English
Default : Yes
Forced : No

Audio #1
ID : 2
Format : AC-3
Format/Info : Audio Coding 3
Format settings, Endianness : Big
Codec ID : A_AC3
Duration : 42 min 20 s
Bit rate mode : Constant
Bit rate : 384 kb/s
Channel(s) : 6 channels
Channel positions : Front: L C R, Side: L R, LFE
Sampling rate : 48.0 kHz
Frame rate : 31.250 FPS (1536 SPF)
Bit depth : 16 bits
Compression mode : Lossy
Stream size : 116 MiB (18%)
Language : German
Service kind : Complete Main
Default : Yes
Forced : No

Audio #2
ID : 3
Format : AC-3
Format/Info : Audio Coding 3
Format settings, Endianness : Big
Codec ID : A_AC3
Duration : 42 min 20 s
Bit rate mode : Constant
Bit rate : 384 kb/s
Channel(s) : 6 channels
Channel positions : Front: L C R, Side: L R, LFE
Sampling rate : 48.0 kHz
Frame rate : 31.250 FPS (1536 SPF)
Bit depth : 16 bits
Compression mode : Lossy
Stream size : 116 MiB (18%)
Language : English
Service kind : Complete Main
Default : No
Forced : No

Text #1
ID : 4
Format : UTF-8
Codec ID : S_TEXT/UTF8
Codec ID/Info : UTF-8 Plain Text
Duration : 40 min 19 s
Bit rate : 4 b/s
Count of elements : 44
Stream size : 1.28 KiB (0%)
Title : Forced
Language : German
Default : Yes
Forced : No

Text #2
ID : 5
Format : UTF-8
Codec ID : S_TEXT/UTF8
Codec ID/Info : UTF-8 Plain Text
Duration : 41 min 54 s
Bit rate : 97 b/s
Count of elements : 728
Stream size : 30.0 KiB (0%)
Title : German
Language : German
Default : No
Forced : No

Text #3
ID : 6
Format : UTF-8
Codec ID : S_TEXT/UTF8
Codec ID/Info : UTF-8 Plain Text
Duration : 41 min 31 s
Bit rate : 108 b/s
Count of elements : 1070
Stream size : 33.1 KiB (0%)
Title : English
Language : English
Default : No
Forced : No

Text #4
ID : 7
Format : UTF-8
Codec ID : S_TEXT/UTF8
Codec ID/Info : UTF-8 Plain Text
Duration : 41 min 54 s
Bit rate : 87 b/s
Count of elements : 722
Stream size : 26.9 KiB (0%)
Title : French
Language : French
Default : No
Forced : No

Text #5
ID : 8
Format : UTF-8
Codec ID : S_TEXT/UTF8
Codec ID/Info : UTF-8 Plain Text
Duration : 41 min 54 s
Bit rate : 88 b/s
Count of elements : 730
Stream size : 27.2 KiB (0%)
Title : Spanish
Language : Spanish
Default : No
Forced : No

Text #6
ID : 9
Format : UTF-8
Codec ID : S_TEXT/UTF8
Codec ID/Info : UTF-8 Plain Text
Duration : 41 min 54 s
Bit rate : 90 b/s
Count of elements : 735
Stream size : 27.8 KiB (0%)
Title : Italian
Language : Italian
Default : No
Forced : No





Jane the Virgin S04E06


Jane the Virgin S04E06


Jane the Virgin S04E06


Jane the Virgin S04E06


Jane the Virgin S04E06

All episodes