Featured TV Shows


Jane the Virgin S04E09

Posted By: Tavaz
1080p (FullHD) / WEBRip IMDb
Jane the Virgin S04E09

Jane the Virgin S04E09
WEB-DL | MKV | 1920x1080 | English | H264 @ 11852 kbps | E-AC-3 @ 640 kbps | 42 min 30 s | 3.71 GiB
Subtitles: English
Genre: Comedy, Drama

A comedy-drama following a chaste young woman who is accidentally impregnated via artificial insemination as she struggles to inform her devoutly religious family and make the right choices concerning the child. Based on the telenovela "Juana la virgen."

20587bd20cc840059ca8db44b720236b.mkv (3.7 GB)



General
Unique ID : 23345712773300785701408119810554198803 (0x11903881C831FC86A9EC214C6755FB13)
Complete name : ./20587bd20cc840059ca8db44b720236b.mkv
Format : Matroska
Format version : Version 4 / Version 2
File size : 3.71 GiB
Duration : 42 min 30 s
Overall bit rate mode : Variable
Overall bit rate : 12.5 Mb/s
Encoded date : UTC 2018-02-03 12:40:49
Writing application : mkvmerge v17.0.0 ('Be Ur Friend') 64-bit
Writing library : libebml v1.3.5 + libmatroska v1.4.8

Video
ID : 1
Format : AVC
Format/Info : Advanced Video Codec
Format profile : High@L4
Format settings : CABAC / 4 Ref Frames
Format settings, CABAC : Yes
Format settings, RefFrames : 4 frames
Codec ID : V_MPEG4/ISO/AVC
Duration : 42 min 30 s
Bit rate mode : Variable
Bit rate : 11.9 Mb/s
Maximum bit rate : 15.0 Mb/s
Width : 1 920 pixels
Height : 1 080 pixels
Display aspect ratio : 16:9
Frame rate mode : Constant
Frame rate : 23.976 (24000/1001) FPS
Color space : YUV
Chroma subsampling : 4:2:0
Bit depth : 8 bits
Scan type : Progressive
Bits/(Pixel*Frame) : 0.238
Stream size : 3.52 GiB (95%)
Default : Yes
Forced : No
Color range : Limited
Color primaries : BT.709
Transfer characteristics : BT.709
Matrix coefficients : BT.709

Audio
ID : 2
Format : E-AC-3
Format/Info : Enhanced Audio Coding 3
Format settings, Endianness : Big
Codec ID : A_EAC3
Duration : 42 min 30 s
Bit rate mode : Constant
Bit rate : 640 kb/s
Channel(s) : 6 channels
Channel positions : Front: L C R, Side: L R, LFE
Sampling rate : 48.0 kHz
Frame rate : 187.500 FPS (256 SPF)
Compression mode : Lossy
Stream size : 195 MiB (5%)
Language : English
Service kind : Complete Main
Default : Yes
Forced : No

Text #1
ID : 3
Format : UTF-8
Codec ID : S_TEXT/UTF8
Codec ID/Info : UTF-8 Plain Text
Duration : 41 min 57 s
Bit rate : 87 b/s
Count of elements : 908
Stream size : 26.9 KiB (0%)
Language : English
Default : No
Forced : No

Text #2
ID : 4
Format : UTF-8
Codec ID : S_TEXT/UTF8
Codec ID/Info : UTF-8 Plain Text
Duration : 41 min 57 s
Bit rate : 90 b/s
Count of elements : 942
Stream size : 27.9 KiB (0%)
Title : SDH
Language : English
Default : No
Forced : No





Jane the Virgin S04E09


Jane the Virgin S04E09


Jane the Virgin S04E09


Jane the Virgin S04E09


Jane the Virgin S04E09

All episodes