Featured TV Shows


Jane the Virgin S04E15

Posted By: Tavaz
720p (HD) / HDTV IMDb
Jane the Virgin S04E15

Jane the Virgin S04E15
HDTV | MKV | 1280x720 | English | H264 @ 2806 kbps | AC-3 @ 384 kbps | 42 min 1 s | 959 MiB
Genre: Comedy, Drama

A comedy-drama following a chaste young woman who is accidentally impregnated via artificial insemination as she struggles to inform her devoutly religious family and make the right choices concerning the child. Based on the telenovela "Juana la virgen."

60a2d1fadf69459d8b16197ee13b6d06.mkv (959.4 MB)



General
Unique ID : 138391007337528114334696620798313629548 (0x681D237529E70D9E17F06C059A5A076C)
Complete name : ./60a2d1fadf69459d8b16197ee13b6d06.mkv
Format : Matroska
Format version : Version 4 / Version 2
File size : 959 MiB
Duration : 42 min 1 s
Overall bit rate : 3 192 kb/s
Encoded date : UTC 2018-04-07 05:51:25
Writing application : mkvmerge v8.8.0 ('Wind at my back') 64bit
Writing library : libebml v1.3.3 + libmatroska v1.4.4

Video
ID : 1
Format : AVC
Format/Info : Advanced Video Codec
Format profile : High@L4.1
Format settings : CABAC / 5 Ref Frames
Format settings, CABAC : Yes
Format settings, RefFrames : 5 frames
Codec ID : V_MPEG4/ISO/AVC
Duration : 42 min 1 s
Bit rate : 2 807 kb/s
Width : 1 280 pixels
Height : 720 pixels
Display aspect ratio : 16:9
Frame rate mode : Constant
Frame rate : 23.976 (24000/1001) FPS
Color space : YUV
Chroma subsampling : 4:2:0
Bit depth : 8 bits
Scan type : Progressive
Bits/(Pixel*Frame) : 0.127
Stream size : 843 MiB (88%)
Writing library : x264 core 155 r2901 7d0ff22
Encoding settings : cabac=1 / ref=5 / deblock=1:0:0 / analyse=0x3:0x113 / me=hex / subme=8 / psy=1 / psy_rd=1.00:0.00 / mixed_ref=1 / me_range=16 / chroma_me=1 / trellis=2 / 8x8dct=1 / cqm=0 / deadzone=21,11 / fast_pskip=1 / chroma_qp_offset=-2 / threads=22 / lookahead_threads=3 / sliced_threads=0 / nr=0 / decimate=1 / interlaced=0 / bluray_compat=0 / constrained_intra=0 / bframes=3 / b_pyramid=2 / b_adapt=1 / b_bias=0 / direct=3 / weightb=1 / open_gop=0 / weightp=2 / keyint=250 / keyint_min=23 / scenecut=40 / intra_refresh=0 / rc_lookahead=50 / rc=crf / mbtree=1 / crf=18.0 / qcomp=0.60 / qpmin=0 / qpmax=69 / qpstep=4 / ip_ratio=1.40 / aq=1:1.00
Default : Yes
Forced : No
Color range : Limited
Matrix coefficients : BT.709

Audio
ID : 2
Format : AC-3
Format/Info : Audio Coding 3
Format settings, Endianness : Big
Codec ID : A_AC3
Duration : 42 min 1 s
Bit rate mode : Constant
Bit rate : 384 kb/s
Channel(s) : 6 channels
Channel positions : Front: L C R, Side: L R, LFE
Sampling rate : 48.0 kHz
Frame rate : 31.250 FPS (1536 SPF)
Bit depth : 16 bits
Compression mode : Lossy
Stream size : 115 MiB (12%)
Service kind : Complete Main
Default : Yes
Forced : No





Jane the Virgin S04E15


Jane the Virgin S04E15


Jane the Virgin S04E15


Jane the Virgin S04E15


Jane the Virgin S04E15

All episodes