Featured TV Shows


Jane the Virgin S05E03

Posted By: Tavaz
720p (HD) / HDTV IMDb
Jane the Virgin S05E03

Jane the Virgin S05E03
HDTV | MKV | 1280x720 | English | H264 @ 2699 kbps | AC-3 @ 384 kbps | 41 min 31 s | 934 MiB
Genre: Comedy, Drama

A comedy-drama following a chaste young woman who is accidentally impregnated via artificial insemination as she struggles to inform her devoutly religious family and make the right choices concerning the child. Based on the telenovela "Juana la virgen."

Jane.the.Virgin.S05E03.720p.HDTV.x264-SVA.mkv (934.2 MB)



General
Unique ID : 255129684184645078643849918641900473207 (0xBFF03099D59B3693AABDD9621C61CB77)
Complete name : ./Jane.the.Virgin.S05E03.720p.HDTV.x264-SVA.mkv
Format : Matroska
Format version : Version 4 / Version 2
File size : 934 MiB
Duration : 41 min 31 s
Overall bit rate : 3 146 kb/s
Encoded date : UTC 2019-04-11 01:16:47
Writing application : FastLE v3.0.0 - AVS
Writing library : libx264 + libebml + libmatroska + libfastrar

Video
ID : 1
Format : AVC
Format/Info : Advanced Video Codec
Format profile : High@L4.1
Format settings : CABAC / 5 Ref Frames
Format settings, CABAC : Yes
Format settings, RefFrames : 5 frames
Codec ID : V_MPEG4/ISO/AVC
Duration : 41 min 31 s
Bit rate : 2 699 kb/s
Width : 1 280 pixels
Height : 720 pixels
Display aspect ratio : 16:9
Frame rate mode : Constant
Frame rate : 23.976 (24000/1001) FPS
Color space : YUV
Chroma subsampling : 4:2:0
Bit depth : 8 bits
Scan type : Progressive
Bits/(Pixel*Frame) : 0.122
Stream size : 802 MiB (86%)
Writing library : x264 core 157 r2969 d4099dd
Encoding settings : cabac=1 / ref=5 / deblock=1:0:0 / analyse=0x3:0x113 / me=hex / subme=8 / psy=1 / psy_rd=1.00:0.00 / mixed_ref=1 / me_range=16 / chroma_me=1 / trellis=2 / 8x8dct=1 / cqm=0 / deadzone=21,11 / fast_pskip=1 / chroma_qp_offset=-2 / threads=22 / lookahead_threads=3 / sliced_threads=0 / nr=0 / decimate=1 / interlaced=0 / bluray_compat=0 / constrained_intra=0 / bframes=3 / b_pyramid=2 / b_adapt=1 / b_bias=0 / direct=3 / weightb=1 / open_gop=0 / weightp=2 / keyint=250 / keyint_min=23 / scenecut=40 / intra_refresh=0 / rc_lookahead=50 / rc=crf / mbtree=1 / crf=18.0 / qcomp=0.60 / qpmin=0 / qpmax=69 / qpstep=4 / ip_ratio=1.40 / aq=1:1.00
Default : Yes
Forced : No
Color range : Limited
Matrix coefficients : BT.709

Audio
ID : 2
Format : AC-3
Format/Info : Audio Coding 3
Format settings, Endianness : Big
Codec ID : A_AC3
Duration : 41 min 31 s
Bit rate mode : Constant
Bit rate : 384 kb/s
Channel(s) : 6 channels
Channel positions : Front: L C R, Side: L R, LFE
Sampling rate : 48.0 kHz
Frame rate : 31.250 FPS (1536 SPF)
Bit depth : 16 bits
Compression mode : Lossy
Stream size : 114 MiB (12%)
Service kind : Complete Main
Default : Yes
Forced : No





Jane the Virgin S05E03


Jane the Virgin S05E03


Jane the Virgin S05E03


Jane the Virgin S05E03


Jane the Virgin S05E03

All episodes