Featured TV Shows


Jane the Virgin S05E04

Posted By: Tavaz
Jane the Virgin S05E04

Jane the Virgin S05E04


A comedy-drama following a chaste young woman who is accidentally impregnated via artificial insemination as she struggles to inform her devoutly religious family and make the right choices concerning the child. Based on the telenovela "Juana la virgen."

7aff3fb9a0124a43b9a1f1bd1d031a81.avi (406.5 MB)



General
Complete name : ./7aff3fb9a0124a43b9a1f1bd1d031a81.avi
Format : AVI
Format/Info : Audio Video Interleave
File size : 407 MiB
Duration : 41 min 48 s
Overall bit rate : 1 359 kb/s
Movie name : Jane.the.Virgin.S05E04.720p.HDTV.x264-LucidTV
Writing application : Lavf57.81.100

Video
ID : 0
Format : xvid
Codec ID : xvid
Duration : 41 min 48 s
Bit rate : 1 219 kb/s
Width : 640 pixels
Height : 360 pixels
Display aspect ratio : 16:9
Frame rate : 23.976 (24000/1001) FPS
Scan type : Progressive
Bits/(Pixel*Frame) : 0.221
Stream size : 364 MiB (90%)

Audio
ID : 1
Format : MPEG Audio
Format version : Version 1
Format profile : Layer 3
Format settings : Joint stereo / MS Stereo
Mode : Joint stereo
Mode extension : MS Stereo
Codec ID : 55
Codec ID/Hint : MP3
Duration : 41 min 48 s
Bit rate mode : Constant
Bit rate : 128 kb/s
Channel(s) : 2 channels
Sampling rate : 48.0 kHz
Compression mode : Lossy
Stream size : 38.3 MiB (9%)
Alignment : Aligned on interleaves
Interleave, duration : 24 ms (0.58 video frame)
Interleave, preload duration : 24 ms





Jane the Virgin S05E04


Jane the Virgin S05E04


Jane the Virgin S05E04


Jane the Virgin S05E04


Jane the Virgin S05E04

All episodes