Index
# A B C D E F G H I J K L M N O P Q R S T U V W Y Z
Tags
Language
Tags

Featured TV Shows


Kate Humble: Off the Beaten Track S01E02

Posted By: Tavaz
1080p (FullHD) / WEBRip IMDb
Kate Humble: Off the Beaten Track S01E02

Kate Humble: Off the Beaten Track S01E02
WEBRip | MKV | 1920x1080 | English | H264 @ 4333 kbps | AAC @ 157 kbps | 28 min 59 s | 932 MiB
Subtitles: English
Genre: Documentary


Kate Humble and her Welsh sheepdog Teg travel from the tip of North Wales through the remotest parts of Wales to the south coast. Along the way they explore how the landscape shapes the people who live there.

ff1201c897ab4f59ab7d42a17cd19461.mkv (931.9 MB)



General
Unique ID : 174299056343004810986628638900943720797 (0x8320C6F5DAC56740CCBF65E26826115D)
Complete name : ./ff1201c897ab4f59ab7d42a17cd19461.mkv
Format : Matroska
Format version : Version 4 / Version 2
File size : 932 MiB
Duration : 28 min 59 s
Overall bit rate : 4 494 kb/s
Encoded date : UTC 2022-02-17 15:20:59
Writing application : mkvmerge v65.0.0 ('Too Much') 64-bit
Writing library : libebml v1.4.2 + libmatroska v1.6.4

Video
ID : 1
Format : AVC
Format/Info : Advanced Video Codec
Format profile : High@L4
Format settings : CABAC / 4 Ref Frames
Format settings, CABAC : Yes
Format settings, RefFrames : 4 frames
Codec ID : V_MPEG4/ISO/AVC
Duration : 28 min 59 s
Bit rate : 4 334 kb/s
Width : 1 920 pixels
Height : 1 080 pixels
Display aspect ratio : 16:9
Frame rate mode : Constant
Frame rate : 25.000 FPS
Color space : YUV
Chroma subsampling : 4:2:0
Bit depth : 8 bits
Scan type : Progressive
Bits/(Pixel*Frame) : 0.084
Stream size : 899 MiB (96%)
Default : Yes
Forced : No

Audio
ID : 2
Format : AAC
Format/Info : Advanced Audio Codec
Format profile : LC
Codec ID : A_AAC-2
Duration : 28 min 59 s
Bit rate : 157 kb/s
Channel(s) : 2 channels
Channel positions : Front: L R
Sampling rate : 48.0 kHz
Frame rate : 46.875 FPS (1024 SPF)
Compression mode : Lossy
Stream size : 32.6 MiB (4%)
Language : English
Default : Yes
Forced : No

Text
ID : 3
Format : UTF-8
Codec ID : S_TEXT/UTF8
Codec ID/Info : UTF-8 Plain Text
Duration : 28 min 31 s
Bit rate : 112 b/s
Count of elements : 677
Stream size : 23.5 KiB (0%)
Language : English
Default : Yes
Forced : No





Kate Humble: Off the Beaten Track S01E02


Kate Humble: Off the Beaten Track S01E02


Kate Humble: Off the Beaten Track S01E02


Kate Humble: Off the Beaten Track S01E02

All episodes