Featured TV Shows


Kevin Hart Presents: Hart of the City S03E01

Posted By: Tavaz
720p (HD) / WEBRip IMDb
Kevin Hart Presents: Hart of the City S03E01

Kevin Hart Presents: Hart of the City S03E01
WEBRip | MKV | 1280x720 | English | H264 @ 1793 kbps | AAC @ 128 kbps | 20 min 39 s | 284 MiB
Genre: Comedy


This eight-episode series follows Kevin Hart as he travels to different cities to explore the local comedy scenes in Philadelphia, Washington D.C., Atlanta, Chicago, Houston, Birmingham, Miami and Sacramento. Hart will introduce some of the newest voices in comedy today.

kevin.hart.presents.hart.of.the.city.s03e01.720p.web.x264-tbs.mkv (284.3 MB)



General
Unique ID : 74586285933908652933217548899641260860 (0x381CCBD09F51D4D4D7AACA643758FB3C)
Complete name : ./kevin.hart.presents.hart.of.the.city.s03e01.720p.web.x264-tbs.mkv
Format : Matroska
Format version : Version 4 / Version 2
File size : 284 MiB
Duration : 20 min 39 s
Overall bit rate : 1 924 kb/s
Encoded date : UTC 2019-06-15 07:05:37
Writing application : mkvmerge v29.0.0 ('Like It Or Not') 64-bit
Writing library : libebml v1.3.6 + libmatroska v1.4.9

Video
ID : 1
Format : AVC
Format/Info : Advanced Video Codec
Format profile : High@L4
Format settings : CABAC / 4 Ref Frames
Format settings, CABAC : Yes
Format settings, RefFrames : 4 frames
Codec ID : V_MPEG4/ISO/AVC
Duration : 20 min 39 s
Bit rate : 1 794 kb/s
Width : 1 280 pixels
Height : 720 pixels
Display aspect ratio : 16:9
Frame rate mode : Constant
Frame rate : 23.976 (23976/1000) FPS
Color space : YUV
Chroma subsampling : 4:2:0
Bit depth : 8 bits
Scan type : Progressive
Bits/(Pixel*Frame) : 0.081
Stream size : 265 MiB (93%)
Writing library : x264 core 152
Encoding settings : cabac=1 / ref=4 / deblock=1:0:0 / analyse=0x3:0x113 / me=umh / subme=10 / psy=1 / psy_rd=1.00:0.15 / mixed_ref=1 / me_range=16 / chroma_me=1 / trellis=2 / 8x8dct=1 / cqm=0 / deadzone=21,11 / fast_pskip=1 / chroma_qp_offset=-3 / threads=14 / lookahead_threads=4 / sliced_threads=0 / nr=0 / decimate=1 / interlaced=0 / bluray_compat=0 / constrained_intra=0 / bframes=3 / b_pyramid=0 / b_adapt=2 / b_bias=0 / direct=3 / weightb=1 / open_gop=0 / weightp=2 / keyint=48 / keyint_min=4 / scenecut=0 / intra_refresh=0 / rc_lookahead=48 / rc=crf / mbtree=1 / crf=19.0 / qcomp=0.75 / qpmin=10 / qpmax=51 / qpstep=4 / vbv_maxrate=3000 / vbv_bufsize=6000 / crf_max=0.0 / nal_hrd=none / filler=0 / ip_ratio=1.40 / aq=1:0.80
Default : Yes
Forced : No

Audio
ID : 2
Format : AAC
Format/Info : Advanced Audio Codec
Format profile : LC
Codec ID : A_AAC-2
Duration : 20 min 39 s
Bit rate : 128 kb/s
Channel(s) : 2 channels
Channel positions : Front: L R
Sampling rate : 48.0 kHz
Frame rate : 46.875 FPS (1024 SPF)
Compression mode : Lossy
Delay relative to video : -41 ms
Stream size : 18.9 MiB (7%)
Default : Yes
Forced : No





Kevin Hart Presents: Hart of the City S03E01


Kevin Hart Presents: Hart of the City S03E01


Kevin Hart Presents: Hart of the City S03E01


Kevin Hart Presents: Hart of the City S03E01


Kevin Hart Presents: Hart of the City S03E01

All episodes