Featured TV Shows


Kevin Hart Presents: Hart of the City S03E05

Posted By: Tavaz
720p (HD) / HDTV IMDb
Kevin Hart Presents: Hart of the City S03E05

Kevin Hart Presents: Hart of the City S03E05
HDTV | MKV | 1280x720 | English | H264 @ 2699 kbps | AC-3 @ 384 kbps | 20 min 25 s | 451 MiB
Subtitles: English
Genre: Comedy


This eight-episode series follows Kevin Hart as he travels to different cities to explore the local comedy scenes in Philadelphia, Washington D.C., Atlanta, Chicago, Houston, Birmingham, Miami and Sacramento. Hart will introduce some of the newest voices in comedy today.

Kevin.Hart.Presents.Hart.of.the.City.S03E05.Rochester.720p.HDTV.x264-CRiMSON.mkv (450.8 MB)



General
Unique ID : 95193626798240962206075813498716500528 (0x479DA029B7A1450D2652AB059BE53230)
Complete name : ./Kevin.Hart.Presents.Hart.of.the.City.S03E05.Rochester.720p.HDTV.x264-CRiMSON.mkv
Format : Matroska
Format version : Version 4 / Version 2
File size : 451 MiB
Duration : 20 min 25 s
Overall bit rate : 3 086 kb/s
Encoded date : UTC 2019-06-29 05:49:45
Writing application : mkvmerge v30.1.0 ('Forever And More') 64-bit
Writing library : libebml v1.3.6 + libmatroska v1.4.9

Video
ID : 3
Format : AVC
Format/Info : Advanced Video Codec
Format profile : High@L4.1
Format settings : CABAC / 5 Ref Frames
Format settings, CABAC : Yes
Format settings, RefFrames : 5 frames
Codec ID : V_MPEG4/ISO/AVC
Duration : 20 min 25 s
Bit rate : 2 700 kb/s
Width : 1 280 pixels
Height : 720 pixels
Display aspect ratio : 16:9
Frame rate mode : Constant
Frame rate : 23.976 (24000/1001) FPS
Color space : YUV
Chroma subsampling : 4:2:0
Bit depth : 8 bits
Scan type : Progressive
Bits/(Pixel*Frame) : 0.122
Stream size : 394 MiB (87%)
Writing library : x264 core 157 r2970 5493be8
Encoding settings : cabac=1 / ref=5 / deblock=1:0:0 / analyse=0x3:0x113 / me=umh / subme=8 / psy=1 / psy_rd=1.00:0.15 / mixed_ref=1 / me_range=16 / chroma_me=1 / trellis=2 / 8x8dct=1 / cqm=0 / deadzone=21,11 / fast_pskip=1 / chroma_qp_offset=-3 / threads=22 / lookahead_threads=3 / sliced_threads=0 / nr=0 / decimate=1 / interlaced=0 / bluray_compat=0 / constrained_intra=0 / bframes=3 / b_pyramid=2 / b_adapt=2 / b_bias=0 / direct=3 / weightb=1 / open_gop=0 / weightp=2 / keyint=240 / keyint_min=23 / scenecut=40 / intra_refresh=0 / rc_lookahead=50 / rc=crf / mbtree=1 / crf=18.0 / qcomp=0.60 / qpmin=0 / qpmax=69 / qpstep=4 / vbv_maxrate=62500 / vbv_bufsize=78125 / crf_max=0.0 / nal_hrd=none / filler=0 / ip_ratio=1.40 / aq=1:1.00
Language : English
Default : Yes
Forced : No
Color range : Limited
Matrix coefficients : BT.709

Audio
ID : 1
Format : AC-3
Format/Info : Audio Coding 3
Format settings, Endianness : Big
Codec ID : A_AC3
Duration : 20 min 25 s
Bit rate mode : Constant
Bit rate : 384 kb/s
Channel(s) : 2 channels
Channel positions : Front: L R
Sampling rate : 48.0 kHz
Frame rate : 31.250 FPS (1536 SPF)
Bit depth : 16 bits
Compression mode : Lossy
Delay relative to video : 30 ms
Stream size : 56.1 MiB (12%)
Service kind : Complete Main
Default : Yes
Forced : No

Text
ID : 2
Format : UTF-8
Codec ID : S_TEXT/UTF8
Codec ID/Info : UTF-8 Plain Text
Duration : 20 min 24 s
Bit rate : 152 b/s
Count of elements : 569
Stream size : 22.8 KiB (0%)
Language : English
Default : No
Forced : No





Kevin Hart Presents: Hart of the City S03E05


Kevin Hart Presents: Hart of the City S03E05


Kevin Hart Presents: Hart of the City S03E05


Kevin Hart Presents: Hart of the City S03E05


Kevin Hart Presents: Hart of the City S03E05

All episodes