Kevin (Probably) Saves the World S01E14

Posted By: Tavaz
720p (HD) / HDTV IMDb
Kevin (Probably) Saves the World S01E14

Kevin (Probably) Saves the World S01E14
HDTV | MKV | 1280x716 | English | H264 @ 2959 kbps | AC-3 @ 384 kbps | 42 min 21 s | 1 014 MiB
Genre: Comedy, Drama

One day while returning home to stay with his widowed twin sister and her daughter, Kevin Finn, a self-centered man whose life brings him more trouble than he bargained for, is recruited by a celestial being named Yvette, who enlists Kevin with a new purpose in his life, which is to save the world.

623258b3742f4ccbba8fb784fcd9181f.mkv (1013.6 MB)



General
Unique ID : 129426556752795356239836004873907851806 (0x615EA5EB83AE76966D5AC6373BA1D21E)
Complete name : ./623258b3742f4ccbba8fb784fcd9181f.mkv
Format : Matroska
Format version : Version 4 / Version 2
File size : 1 014 MiB
Duration : 42 min 21 s
Overall bit rate : 3 346 kb/s
Encoded date : UTC 2018-02-21 01:03:01
Writing application : mkvmerge v8.8.0 ('Wind at my back') 64bit
Writing library : libebml v1.3.3 + libmatroska v1.4.4

Video
ID : 1
Format : AVC
Format/Info : Advanced Video Codec
Format profile : High@L4.1
Format settings : CABAC / 5 Ref Frames
Format settings, CABAC : Yes
Format settings, RefFrames : 5 frames
Codec ID : V_MPEG4/ISO/AVC
Duration : 42 min 21 s
Bit rate : 2 960 kb/s
Width : 1 280 pixels
Height : 716 pixels
Display aspect ratio : 16:9
Frame rate mode : Constant
Frame rate : 23.976 (24000/1001) FPS
Color space : YUV
Chroma subsampling : 4:2:0
Bit depth : 8 bits
Scan type : Progressive
Bits/(Pixel*Frame) : 0.135
Stream size : 897 MiB (88%)
Writing library : x264 core 155 r2893 b00bcaf
Encoding settings : cabac=1 / ref=5 / deblock=1:0:0 / analyse=0x3:0x113 / me=hex / subme=8 / psy=1 / psy_rd=1.00:0.00 / mixed_ref=1 / me_range=16 / chroma_me=1 / trellis=2 / 8x8dct=1 / cqm=0 / deadzone=21,11 / fast_pskip=1 / chroma_qp_offset=-2 / threads=22 / lookahead_threads=3 / sliced_threads=0 / nr=0 / decimate=1 / interlaced=0 / bluray_compat=0 / constrained_intra=0 / bframes=3 / b_pyramid=2 / b_adapt=1 / b_bias=0 / direct=3 / weightb=1 / open_gop=0 / weightp=2 / keyint=250 / keyint_min=23 / scenecut=40 / intra_refresh=0 / rc_lookahead=50 / rc=crf / mbtree=1 / crf=18.0 / qcomp=0.60 / qpmin=0 / qpmax=69 / qpstep=4 / ip_ratio=1.40 / aq=1:1.00
Default : Yes
Forced : No
Color range : Limited
Matrix coefficients : BT.709

Audio
ID : 2
Format : AC-3
Format/Info : Audio Coding 3
Format settings, Endianness : Big
Codec ID : A_AC3
Duration : 42 min 21 s
Bit rate mode : Constant
Bit rate : 384 kb/s
Channel(s) : 6 channels
Channel positions : Front: L C R, Side: L R, LFE
Sampling rate : 48.0 kHz
Frame rate : 31.250 FPS (1536 SPF)
Bit depth : 16 bits
Compression mode : Lossy
Stream size : 116 MiB (11%)
Service kind : Complete Main
Default : Yes
Forced : No





Kevin (Probably) Saves the World S01E14


Kevin (Probably) Saves the World S01E14


Kevin (Probably) Saves the World S01E14


Kevin (Probably) Saves the World S01E14


Kevin (Probably) Saves the World S01E14

All episodes