Featured TV Shows


Kidding S01E01

Posted By: Tavaz
1080p (FullHD) / WEB-DL IMDb
Kidding S01E01

Kidding S01E01
WEB-DL | MKV | 1920x1080 | English | H264 @ 11522 kbps | E-AC-3 @ 640 kbps | 32 min 59 s | 2.80 GiB
Subtitles: English
Genre: Comedy, Drama

Jeff, aka Mr. Pickles, is an icon of children's TV. But when his family begins to implode, Jeff finds no fairy tale or fable or puppet will guide him through this crisis, which advances faster than his means to cope. The result: a kind man in a cruel world faces a slow leak of sanity as hilarious as it is heartbreaking.

b591c0effd8d401c99adef7383711827.mkv (2.8 GB)



General
Unique ID : 224952552000195836767051050290172881028 (0xA93C491CD7A8CD9C477111B1158B6884)
Complete name : ./b591c0effd8d401c99adef7383711827.mkv
Format : Matroska
Format version : Version 4 / Version 2
File size : 2.80 GiB
Duration : 32 min 59 s
Overall bit rate : 12.2 Mb/s
Encoded date : UTC 2018-08-31 16:33:06
Writing application : mkvmerge v26.0.0 ('In The Game') 64-bit
Writing library : libebml v1.3.6 + libmatroska v1.4.9

Video
ID : 1
Format : AVC
Format/Info : Advanced Video Codec
Format profile : High@L4
Format settings : CABAC / 4 Ref Frames
Format settings, CABAC : Yes
Format settings, RefFrames : 4 frames
Codec ID : V_MPEG4/ISO/AVC
Duration : 32 min 59 s
Bit rate : 11.5 Mb/s
Width : 1 920 pixels
Height : 1 080 pixels
Display aspect ratio : 16:9
Frame rate mode : Constant
Frame rate : 23.976 (24000/1001) FPS
Color space : YUV
Chroma subsampling : 4:2:0
Bit depth : 8 bits
Scan type : Progressive
Bits/(Pixel*Frame) : 0.232
Stream size : 2.66 GiB (95%)
Language : English
Default : Yes
Forced : No
Color range : Limited
Color primaries : BT.709
Transfer characteristics : BT.709
Matrix coefficients : BT.709

Audio
ID : 2
Format : E-AC-3
Format/Info : Enhanced Audio Coding 3
Format settings, Endianness : Big
Codec ID : A_EAC3
Duration : 32 min 59 s
Bit rate mode : Constant
Bit rate : 640 kb/s
Channel(s) : 6 channels
Channel positions : Front: L C R, Side: L R, LFE
Sampling rate : 48.0 kHz
Frame rate : 187.500 FPS (256 SPF)
Compression mode : Lossy
Delay relative to video : 3 ms
Stream size : 151 MiB (5%)
Language : English
Service kind : Complete Main
Default : Yes
Forced : No

Text
ID : 3
Format : UTF-8
Codec ID : S_TEXT/UTF8
Codec ID/Info : UTF-8 Plain Text
Duration : 31 min 46 s
Bit rate : 80 b/s
Count of elements : 669
Stream size : 18.6 KiB (0%)
Title : SDH
Language : English
Default : No
Forced : No





Kidding S01E01


Kidding S01E01


Kidding S01E01


Kidding S01E01


Kidding S01E01

All episodes