Featured TV Shows


Kidding S01E03

Posted By: Tavaz
1080p (FullHD) / WEBRip IMDb
Kidding S01E03

Kidding S01E03
WEBRip | MKV | 1920x1080 | English | H264 @ 10000 kbps | E-AC-3 @ 192 kbps | 28 min 33 s | 1.94 GiB
Subtitles: English
Genre: Comedy, Drama

Jeff, aka Mr. Pickles, is an icon of children's TV. But when his family begins to implode, Jeff finds no fairy tale or fable or puppet will guide him through this crisis, which advances faster than his means to cope. The result: a kind man in a cruel world faces a slow leak of sanity as hilarious as it is heartbreaking.

Kidding.S01E03.PROPER.Every.Pain.Needs.a.Name.1080p.AMZN.WEBRip.DDP5.1.x264-LFF.mkv (1.9 GB)



General
Unique ID : 211965087649951669182893754708418192093 (0x9F76FDAEB35F391A98F1C5A2CFD162DD)
Complete name : ./Kidding.S01E03.PROPER.Every.Pain.Needs.a.Name.1080p.AMZN.WEBRip.DDP5.1.x264-LFF.mkv
Format : Matroska
Format version : Version 4 / Version 2
File size : 1.94 GiB
Duration : 28 min 33 s
Overall bit rate : 9 721 kb/s
Encoded date : UTC 2018-09-25 12:31:23
Writing application : mkvmerge v25.0.0 ('Prog Noir') 64-bit
Writing library : libebml v1.3.6 + libmatroska v1.4.9

Video
ID : 1
Format : AVC
Format/Info : Advanced Video Codec
Format profile : High@L4
Format settings : CABAC / 4 Ref Frames
Format settings, CABAC : Yes
Format settings, RefFrames : 4 frames
Codec ID : V_MPEG4/ISO/AVC
Duration : 28 min 33 s
Bit rate mode : Constant
Bit rate : 10 000 kb/s
Width : 1 920 pixels
Height : 1 080 pixels
Display aspect ratio : 16:9
Frame rate mode : Constant
Frame rate : 23.976 (24000/1001) FPS
Color space : YUV
Chroma subsampling : 4:2:0
Bit depth : 8 bits
Scan type : Progressive
Bits/(Pixel*Frame) : 0.201
Stream size : 1.90 GiB (98%)
Default : Yes
Forced : No
Color range : Limited
Color primaries : BT.709
Transfer characteristics : BT.709
Matrix coefficients : BT.709

Audio
ID : 2
Format : E-AC-3
Format/Info : Enhanced Audio Coding 3
Format settings, Endianness : Big
Codec ID : A_EAC3
Duration : 28 min 33 s
Bit rate mode : Constant
Bit rate : 192 kb/s
Channel(s) : 6 channels
Channel positions : Front: L C R, Side: L R, LFE
Sampling rate : 48.0 kHz
Frame rate : 187.500 FPS (256 SPF)
Compression mode : Lossy
Delay relative to video : 18 ms
Stream size : 39.2 MiB (2%)
Language : English
Service kind : Complete Main
Default : Yes
Forced : No

Text
ID : 3
Format : UTF-8
Codec ID : S_TEXT/UTF8
Codec ID/Info : UTF-8 Plain Text
Duration : 27 min 46 s
Bit rate : 85 b/s
Count of elements : 661
Stream size : 17.3 KiB (0%)
Title : SDH
Language : English
Default : No
Forced : No





Kidding S01E03


Kidding S01E03


Kidding S01E03


Kidding S01E03


Kidding S01E03

All episodes