Featured TV Shows


Kidding S01E07

Posted By: Tavaz
720p (HD) / WEBRip IMDb
Kidding S01E07

Kidding S01E07
WEBRip | MKV | 1280x720 | English | H264 @ 3067 kbps | E-AC-3 @ 640 kbps | 29 min 49 s | 791 MiB
Subtitles: English
Genre: Comedy, Drama

Jeff, aka Mr. Pickles, is an icon of children's TV. But when his family begins to implode, Jeff finds no fairy tale or fable or puppet will guide him through this crisis, which advances faster than his means to cope. The result: a kind man in a cruel world faces a slow leak of sanity as hilarious as it is heartbreaking.

412a536495f64abeacb93362bee1f829.mkv (791.4 MB)



General
Unique ID : 64287166004701811621335567763705673672 (0x305D41FF7F3B6BDDDCB52280B933B7C8)
Complete name : ./412a536495f64abeacb93362bee1f829.mkv
Format : Matroska
Format version : Version 4 / Version 2
File size : 791 MiB
Duration : 29 min 49 s
Overall bit rate : 3 709 kb/s
Encoded date : UTC 2018-10-21 04:05:37
Writing application : mkvmerge v28.0.0 ('Voice In My Head') 64-bit
Writing library : libebml v1.3.6 + libmatroska v1.4.9

Video
ID : 1
Format : AVC
Format/Info : Advanced Video Codec
Format profile : High@L3.1
Format settings : CABAC / 5 Ref Frames
Format settings, CABAC : Yes
Format settings, RefFrames : 5 frames
Codec ID : V_MPEG4/ISO/AVC
Duration : 29 min 49 s
Bit rate : 3 067 kb/s
Width : 1 280 pixels
Height : 720 pixels
Display aspect ratio : 16:9
Frame rate mode : Constant
Frame rate : 23.976 (24000/1001) FPS
Color space : YUV
Chroma subsampling : 4:2:0
Bit depth : 8 bits
Scan type : Progressive
Bits/(Pixel*Frame) : 0.139
Stream size : 654 MiB (83%)
Default : Yes
Forced : No
Color range : Limited
Color primaries : BT.709
Transfer characteristics : BT.709
Matrix coefficients : BT.709

Audio
ID : 2
Format : E-AC-3
Format/Info : Enhanced Audio Coding 3
Format settings, Endianness : Big
Codec ID : A_EAC3
Duration : 29 min 49 s
Bit rate mode : Constant
Bit rate : 640 kb/s
Channel(s) : 6 channels
Channel positions : Front: L C R, Side: L R, LFE
Sampling rate : 48.0 kHz
Frame rate : 187.500 FPS (256 SPF)
Compression mode : Lossy
Delay relative to video : 25 ms
Stream size : 137 MiB (17%)
Title : English
Language : English
Service kind : Complete Main
Default : Yes
Forced : No

Text
ID : 3
Format : UTF-8
Codec ID : S_TEXT/UTF8
Codec ID/Info : UTF-8 Plain Text
Duration : 29 min 2 s
Bit rate : 78 b/s
Count of elements : 648
Stream size : 16.6 KiB (0%)
Title : English (SDH)
Language : English
Default : No
Forced : No





Kidding S01E07


Kidding S01E07


Kidding S01E07


Kidding S01E07


Kidding S01E07

All episodes