Featured TV Shows


Kidding S01E08

Posted By: Tavaz
720p (HD) / WEB-DL IMDb
Kidding S01E08

Kidding S01E08
WEB-DL | MKV | 1280x720 | English | H264 @ 3640 kbps | E-AC-3 @ 640 kbps | 30 min 8 s | 923 MiB
Subtitles: English
Genre: Comedy, Drama

Jeff, aka Mr. Pickles, is an icon of children's TV. But when his family begins to implode, Jeff finds no fairy tale or fable or puppet will guide him through this crisis, which advances faster than his means to cope. The result: a kind man in a cruel world faces a slow leak of sanity as hilarious as it is heartbreaking.

f4fb6b8c9d0245fba889d6f9d3c59f68.mkv (923.2 MB)



General
Unique ID : 76942572797113559387299745535744249935 (0x39E299BA073A5169C3DB0F168997904F)
Complete name : ./f4fb6b8c9d0245fba889d6f9d3c59f68.mkv
Format : Matroska
Format version : Version 4 / Version 2
File size : 923 MiB
Duration : 30 min 8 s
Overall bit rate : 4 282 kb/s
Encoded date : UTC 2018-10-28 06:48:31
Writing application : mkvmerge v28.1.0 ('Morning Child') 64-bit
Writing library : libebml v1.3.6 + libmatroska v1.4.9

Video
ID : 1
Format : AVC
Format/Info : Advanced Video Codec
Format profile : High@L3.1
Format settings : CABAC / 5 Ref Frames
Format settings, CABAC : Yes
Format settings, RefFrames : 5 frames
Codec ID : V_MPEG4/ISO/AVC
Duration : 30 min 8 s
Bit rate : 3 640 kb/s
Width : 1 280 pixels
Height : 720 pixels
Display aspect ratio : 16:9
Frame rate mode : Constant
Frame rate : 23.976 (24000/1001) FPS
Color space : YUV
Chroma subsampling : 4:2:0
Bit depth : 8 bits
Scan type : Progressive
Bits/(Pixel*Frame) : 0.165
Stream size : 785 MiB (85%)
Language : English
Default : Yes
Forced : No
Color range : Limited
Color primaries : BT.709
Transfer characteristics : BT.709
Matrix coefficients : BT.709

Audio
ID : 2
Format : E-AC-3
Format/Info : Enhanced Audio Coding 3
Format settings, Endianness : Big
Codec ID : A_EAC3
Duration : 30 min 8 s
Bit rate mode : Constant
Bit rate : 640 kb/s
Channel(s) : 6 channels
Channel positions : Front: L C R, Side: L R, LFE
Sampling rate : 48.0 kHz
Frame rate : 187.500 FPS (256 SPF)
Compression mode : Lossy
Delay relative to video : 10 ms
Stream size : 138 MiB (15%)
Language : English
Service kind : Complete Main
Default : Yes
Forced : No

Text
ID : 3
Format : UTF-8
Codec ID : S_TEXT/UTF8
Codec ID/Info : UTF-8 Plain Text
Duration : 28 min 35 s
Bit rate : 71 b/s
Count of elements : 568
Stream size : 14.9 KiB (0%)
Title : SDH
Language : English
Default : No
Forced : No





Kidding S01E08


Kidding S01E08


Kidding S01E08


Kidding S01E08


Kidding S01E08

All episodes