Featured TV Shows


Killing Eve S01E01

Posted By: Tavaz
1080p (FullHD) / BDRip IMDb
Killing Eve S01E01

Killing Eve S01E01

A security consultant hunts for a ruthless assassin. Equally obsessed with each other, they go head to head in an epic game of cat-and-mouse.

Killing.Eve.S01E01.Nice.Face.1080p.BluRay.REMUX.AVC.DTS-HD.MA.5.1-EPSiLON=cfffde071fb5b7916a7ddb7f5661d4971b237afd.part1.rar (5.4 GB)
Killing.Eve.S01E01.Nice.Face.1080p.BluRay.REMUX.AVC.DTS-HD.MA.5.1-EPSiLON=cfffde071fb5b7916a7ddb7f5661d4971b237afd.part2.rar (5.0 GB)



General
Unique ID : 234065262477424787992004241156978375612 (0xB017546D6B7570B05FB99BB9C881FBBC)
Complete name : ./3384346ce63d406485589dee44683134.mkv
Format : Matroska
Format version : Version 4 / Version 2
File size : 10.3 GiB
Duration : 42 min 31 s
Overall bit rate mode : Variable
Overall bit rate : 34.7 Mb/s
Encoded date : UTC 2018-10-10 06:39:36
Writing application : mkvmerge v27.0.0 ('Metropolis') 64-bit
Writing library : libebml v1.3.6 + libmatroska v1.4.9

Video
ID : 1
Format : AVC
Format/Info : Advanced Video Codec
Format profile : High@L4.1
Format settings : CABAC / 4 Ref Frames
Format settings, CABAC : Yes
Format settings, RefFrames : 4 frames
Format settings, GOP : M=3, N=12
Codec ID : V_MPEG4/ISO/AVC
Duration : 42 min 31 s
Bit rate mode : Variable
Bit rate : 31.0 Mb/s
Maximum bit rate : 34.0 Mb/s
Width : 1 920 pixels
Height : 1 080 pixels
Display aspect ratio : 16:9
Frame rate mode : Constant
Frame rate : 23.976 (24000/1001) FPS
Standard : NTSC
Color space : YUV
Chroma subsampling : 4:2:0
Bit depth : 8 bits
Scan type : Progressive
Bits/(Pixel*Frame) : 0.623
Stream size : 9.20 GiB (89%)
Title : MPEG-4 AVC Video / 30983 kbps / 1080p / 23.976 fps / 16:9 / High Profile 4.1
Language : English
Default : Yes
Forced : No
Color range : Limited
Color primaries : BT.709
Transfer characteristics : BT.709
Matrix coefficients : BT.709

Audio
ID : 2
Format : DTS
Format/Info : Digital Theater Systems
Format profile : MA / Core
Mode : 16
Format settings, Endianness : Big
Codec ID : A_DTS
Duration : 42 min 31 s
Bit rate mode : Variable / Constant
Bit rate : 3 660 kb/s / 1 509 kb/s
Channel(s) : 6 channels
Channel positions : Front: L C R, Side: L R, LFE
Sampling rate : 48.0 kHz
Frame rate : 93.750 FPS (512 SPF)
Bit depth : 24 bits
Compression mode : Lossless / Lossy
Stream size : 1.09 GiB (11%)
Title : DTS-HD Master Audio / 5.1 / 48 kHz / 3672 kbps / 24-bit
Language : English
Default : Yes
Forced : No

Text
ID : 3
Format : PGS
Codec ID : S_HDMV/PGS
Codec ID/Info : Picture based subtitle format used on BDs/HD-DVDs
Duration : 41 min 49 s
Bit rate : 45.0 kb/s
Count of elements : 882
Stream size : 13.5 MiB (0%)
Title : SDH
Language : English
Default : No
Forced : No

Menu
00:00:00.000 : :Chapter 1
00:07:06.176 : :Chapter 2
00:14:27.575 : :Chapter 3
00:20:35.776 : :Chapter 4
00:27:09.628 : :Chapter 5
00:32:41.376 : :Chapter 6
00:39:06.469 : :Chapter 7
00:41:59.434 : :Chapter 8





Killing Eve S01E01


Killing Eve S01E01


Killing Eve S01E01


Killing Eve S01E01


Killing Eve S01E01

All episodes