Featured TV Shows


Killing Eve S01E03

Posted By: Tavaz
Killing Eve S01E03

Killing Eve S01E03
MKV | 1920x1080 | English | H264 @ 7105 kbps | E-AC-3 @ 640 kbps | 41 min 42 s | 2.26 GiB
Subtitles: Dutch
Genre: Crime, Drama

A security consultant hunts for a ruthless assassin. Based on the Villanelle novellas by Luke Jennings.

Killing Eve S01E03 (1).mkv (2.3 GB)



General
Unique ID : 219938805668635379793169032087327434543 (0xA576AC5553EB210482E07386C76F672F)
Complete name : ./Killing Eve S01E03 (1).mkv
Format : Matroska
Format version : Version 4 / Version 2
File size : 2.26 GiB
Duration : 41 min 42 s
Overall bit rate mode : Variable
Overall bit rate : 7 748 kb/s
Encoded date : UTC 2018-05-03 13:03:12
Writing application : mkvmerge v15.0.0 ('Duel with the Devil') 64-bit
Writing library : libebml v1.3.5 + libmatroska v1.4.5

Video
ID : 1
Format : AVC
Format/Info : Advanced Video Codec
Format profile : High@L4
Format settings : CABAC / 4 Ref Frames
Format settings, CABAC : Yes
Format settings, RefFrames : 4 frames
Codec ID : V_MPEG4/ISO/AVC
Duration : 41 min 42 s
Bit rate mode : Variable
Bit rate : 7 106 kb/s
Maximum bit rate : 15.0 Mb/s
Width : 1 920 pixels
Height : 1 080 pixels
Display aspect ratio : 16:9
Frame rate mode : Constant
Frame rate : 25.000 FPS
Color space : YUV
Chroma subsampling : 4:2:0
Bit depth : 8 bits
Scan type : Progressive
Bits/(Pixel*Frame) : 0.137
Stream size : 2.07 GiB (92%)
Language : English
Default : Yes
Forced : No
Color range : Limited
Color primaries : BT.709
Transfer characteristics : BT.709
Matrix coefficients : BT.709

Audio
ID : 2
Format : E-AC-3
Format/Info : Enhanced Audio Coding 3
Format settings, Endianness : Big
Codec ID : A_EAC3
Duration : 41 min 41 s
Bit rate mode : Constant
Bit rate : 640 kb/s
Channel(s) : 6 channels
Channel positions : Front: L C R, Side: L R, LFE
Sampling rate : 48.0 kHz
Frame rate : 187.500 FPS (256 SPF)
Compression mode : Lossy
Stream size : 191 MiB (8%)
Language : English
Service kind : Complete Main
Default : Yes
Forced : No

Text
ID : 3
Format : UTF-8
Codec ID : S_TEXT/UTF8
Codec ID/Info : UTF-8 Plain Text
Duration : 41 min 11 s
Bit rate : 61 b/s
Count of elements : 603
Stream size : 18.6 KiB (0%)
Language : Dutch
Default : Yes
Forced : No





Killing Eve S01E03


Killing Eve S01E03


Killing Eve S01E03


Killing Eve S01E03


Killing Eve S01E03

All episodes