Featured TV Shows


Killing Eve S01E03

Posted By: Tavaz
720p (HD) / WEBRip IMDb
Killing Eve S01E03

Killing Eve S01E03
WEBRip | MKV | 1280x720 | English | H264 @ 2432 kbps | AAC @ 93 kbps | 41 min 46 s | 749 MiB
Genre: Crime, Drama

A security consultant hunts for a ruthless assassin. Based on the Villanelle novellas by Luke Jennings.

sample-killing.eve.s01e03.convert.720p.web.x264-tbs.mkv (18.1 MB)
killing.eve.s01e03.convert.720p.web.h264-tbs.mkv (748.6 MB)



General
Unique ID : 191650063774821961024007652722452640999 (0x902E75ACB89C0C8FCCFFF3F1385AB4E7)
Complete name : ./killing.eve.s01e03.convert.720p.web.h264-tbs.mkv
Format : Matroska
Format version : Version 4 / Version 2
File size : 749 MiB
Duration : 41 min 46 s
Overall bit rate : 2 506 kb/s
Encoded date : UTC 2018-04-23 07:20:44
Writing application : mkvmerge v21.0.0 ('Tardigrades Will Inherit The Earth') 64-bit
Writing library : libebml v1.3.5 + libmatroska v1.4.8

Video
ID : 1
Format : AVC
Format/Info : Advanced Video Codec
Format profile : Main@L3.1
Format settings : CABAC / 3 Ref Frames
Format settings, CABAC : Yes
Format settings, RefFrames : 3 frames
Codec ID : V_MPEG4/ISO/AVC
Duration : 41 min 46 s
Bit rate mode : Constant
Bit rate : 2 432 kb/s
Width : 1 280 pixels
Height : 720 pixels
Display aspect ratio : 16:9
Frame rate mode : Constant
Frame rate : 29.970 (30000/1001) FPS
Color space : YUV
Chroma subsampling : 4:2:0
Bit depth : 8 bits
Scan type : Progressive
Bits/(Pixel*Frame) : 0.088
Stream size : 720 MiB (96%)
Default : Yes
Forced : No

Audio
ID : 2
Format : AAC
Format/Info : Advanced Audio Codec
Format profile : LC
Codec ID : A_AAC-2
Duration : 41 min 46 s
Bit rate : 93.6 kb/s
Channel(s) : 2 channels
Channel positions : Front: L R
Sampling rate : 44.1 kHz
Frame rate : 43.066 FPS (1024 SPF)
Compression mode : Lossy
Delay relative to video : -33 ms
Stream size : 28.0 MiB (4%)
Default : Yes
Forced : No





Killing Eve S01E03


Killing Eve S01E03


Killing Eve S01E03


Killing Eve S01E03


Killing Eve S01E03

All episodes