Featured TV Shows


Killing Eve S01E04

Posted By: Tavaz
720p (HD) / WEBRip IMDb
Killing Eve S01E04

Killing Eve S01E04
WEBRip | MKV | 1280x720 | English | H264 @ 2432 kbps | AAC @ 93 kbps | 41 min 54 s | 750 MiB
Genre: Crime, Drama

A security consultant hunts for a ruthless assassin. Based on the Villanelle novellas by Luke Jennings.

d844ff6e31ab4b1c8cf7bcb1760a722d.mkv (750.2 MB)



General
Unique ID : 171548420596802779467770032862894435109 (0x810F0625C797C0A610D9CB4D687F2B25)
Complete name : ./d844ff6e31ab4b1c8cf7bcb1760a722d.mkv
Format : Matroska
Format version : Version 4 / Version 2
File size : 750 MiB
Duration : 41 min 54 s
Overall bit rate : 2 503 kb/s
Encoded date : UTC 2018-04-30 01:32:18
Writing application : mkvmerge v21.0.0 ('Tardigrades Will Inherit The Earth') 64-bit
Writing library : libebml v1.3.5 + libmatroska v1.4.8

Video
ID : 1
Format : AVC
Format/Info : Advanced Video Codec
Format profile : Main@L3.1
Format settings : CABAC / 3 Ref Frames
Format settings, CABAC : Yes
Format settings, RefFrames : 3 frames
Codec ID : V_MPEG4/ISO/AVC
Duration : 41 min 54 s
Bit rate mode : Constant
Bit rate : 2 432 kb/s
Width : 1 280 pixels
Height : 720 pixels
Display aspect ratio : 16:9
Frame rate mode : Constant
Frame rate : 29.970 (30000/1001) FPS
Color space : YUV
Chroma subsampling : 4:2:0
Bit depth : 8 bits
Scan type : Progressive
Bits/(Pixel*Frame) : 0.088
Stream size : 721 MiB (96%)
Default : Yes
Forced : No

Audio
ID : 2
Format : AAC
Format/Info : Advanced Audio Codec
Format profile : LC
Codec ID : A_AAC-2
Duration : 41 min 54 s
Bit rate : 93.6 kb/s
Channel(s) : 2 channels
Channel positions : Front: L R
Sampling rate : 44.1 kHz
Frame rate : 43.066 FPS (1024 SPF)
Compression mode : Lossy
Delay relative to video : -33 ms
Stream size : 28.1 MiB (4%)
Default : Yes
Forced : No





Killing Eve S01E04


Killing Eve S01E04


Killing Eve S01E04


Killing Eve S01E04


Killing Eve S01E04

All episodes