Featured TV Shows


Killing Eve S01E04

Posted By: Tavaz
1080p (FullHD) / BDRip IMDb
Killing Eve S01E04

Killing Eve S01E04
BluRay Remux | MKV | 1920x1080 | English | H264 @ 31125 kbps | DTS | 42 min 16 s | 10.4 GiB
Subtitles: English
Genre: Crime, Drama

A security consultant hunts for a ruthless assassin. Equally obsessed with each other, they go head to head in an epic game of cat-and-mouse.

Killing.Eve.S01E04.Sorry.Baby.1080p.BluRay.REMUX.AVC.DTS-HD.MA.5.1-EPSiLON-WhiteRev=ab4d9894a4e42368f8104d61698ae6ee5b5110f0.part1.rar (5.4 GB)
Killing.Eve.S01E04.Sorry.Baby.1080p.BluRay.REMUX.AVC.DTS-HD.MA.5.1-EPSiLON-WhiteRev=ab4d9894a4e42368f8104d61698ae6ee5b5110f0.part2.rar (5.0 GB)



General
Unique ID : 561268269883650932283494564167605471 (0x6C18A986F8EFBA16A0B5099E46DCDF)
Complete name : ./783a99a1313d46e0846a0ceed14c6a05.mkv
Format : Matroska
Format version : Version 4 / Version 2
File size : 10.4 GiB
Duration : 42 min 16 s
Overall bit rate mode : Variable
Overall bit rate : 35.1 Mb/s
Encoded date : UTC 2018-10-10 06:44:30
Writing application : mkvmerge v27.0.0 ('Metropolis') 64-bit
Writing library : libebml v1.3.6 + libmatroska v1.4.9

Video
ID : 1
Format : AVC
Format/Info : Advanced Video Codec
Format profile : High@L4.1
Format settings : CABAC / 4 Ref Frames
Format settings, CABAC : Yes
Format settings, RefFrames : 4 frames
Format settings, GOP : M=3, N=12
Codec ID : V_MPEG4/ISO/AVC
Duration : 42 min 16 s
Bit rate mode : Variable
Bit rate : 31.1 Mb/s
Maximum bit rate : 34.0 Mb/s
Width : 1 920 pixels
Height : 1 080 pixels
Display aspect ratio : 16:9
Frame rate mode : Constant
Frame rate : 23.976 (24000/1001) FPS
Standard : NTSC
Color space : YUV
Chroma subsampling : 4:2:0
Bit depth : 8 bits
Scan type : Progressive
Bits/(Pixel*Frame) : 0.626
Stream size : 9.19 GiB (89%)
Title : MPEG-4 AVC Video / 31122 kbps / 1080p / 23.976 fps / 16:9 / High Profile 4.1
Language : English
Default : Yes
Forced : No
Color range : Limited
Color primaries : BT.709
Transfer characteristics : BT.709
Matrix coefficients : BT.709

Audio
ID : 2
Format : DTS
Format/Info : Digital Theater Systems
Format profile : MA / Core
Mode : 16
Format settings, Endianness : Big
Codec ID : A_DTS
Duration : 42 min 16 s
Bit rate mode : Variable / Constant
Bit rate : 3 930 kb/s / 1 509 kb/s
Channel(s) : 6 channels
Channel positions : Front: L C R, Side: L R, LFE
Sampling rate : 48.0 kHz
Frame rate : 93.750 FPS (512 SPF)
Bit depth : 24 bits
Compression mode : Lossless / Lossy
Stream size : 1.16 GiB (11%)
Title : DTS-HD Master Audio / 5.1 / 48 kHz / 3941 kbps / 24-bit
Language : English
Default : Yes
Forced : No

Text
ID : 3
Format : PGS
Codec ID : S_HDMV/PGS
Codec ID/Info : Picture based subtitle format used on BDs/HD-DVDs
Duration : 41 min 45 s
Bit rate : 42.1 kb/s
Count of elements : 947
Stream size : 12.6 MiB (0%)
Title : SDH
Language : English
Default : No
Forced : No

Menu
00:00:00.000 : :Chapter 1
00:05:01.760 : :Chapter 2
00:11:28.646 : :Chapter 3
00:17:28.005 : :Chapter 4
00:22:40.985 : :Chapter 5
00:31:50.700 : :Chapter 6
00:36:41.533 : :Chapter 7
00:41:44.502 : :Chapter 8





Killing Eve S01E04


Killing Eve S01E04


Killing Eve S01E04


Killing Eve S01E04


Killing Eve S01E04

All episodes