Featured TV Shows


Killing Eve S01E05

Posted By: Tavaz
1080p (FullHD) / WEBRip IMDb
Killing Eve S01E05

Killing Eve S01E05
WEBRip | MKV | 1920x1080 | English | H264 @ 8000 kbps | AAC @ 125 kbps | 41 min 41 s | 2.34 GiB
Genre: Crime, Drama

A security consultant hunts for a ruthless assassin. Based on the Villanelle novellas by Luke Jennings.

2d496b40e2af4b52a10a001510182d34.mkv (2.3 GB)



General
Complete name : ./2d496b40e2af4b52a10a001510182d34.mkv
Format : Matroska
Format version : Version 4 / Version 2
File size : 2.34 GiB
Duration : 41 min 41 s
Overall bit rate : 8 031 kb/s
Encoded date : UTC 2018-05-07 02:20:45
Writing application : mkvmerge v21.0.0 ('Tardigrades Will Inherit The Earth') 64-bit
Writing library : libebml v1.3.5 + libmatroska v1.4.8

Video
ID : 1
Format : AVC
Format/Info : Advanced Video Codec
Format profile : High@L4
Format settings : CABAC / 3 Ref Frames
Format settings, CABAC : Yes
Format settings, RefFrames : 3 frames
Codec ID : V_MPEG4/ISO/AVC
Duration : 41 min 41 s
Bit rate mode : Constant
Bit rate : 8 000 kb/s
Width : 1 920 pixels
Height : 1 080 pixels
Display aspect ratio : 16:9
Frame rate mode : Constant
Frame rate : 29.970 (30000/1001) FPS
Color space : YUV
Chroma subsampling : 4:2:0
Bit depth : 8 bits
Scan type : Progressive
Bits/(Pixel*Frame) : 0.129
Stream size : 2.30 GiB (98%)
Default : Yes
Forced : No

Audio
ID : 2
Format : AAC
Format/Info : Advanced Audio Codec
Format profile : LC
Codec ID : A_AAC-2
Duration : 41 min 41 s
Bit rate : 126 kb/s
Channel(s) : 2 channels
Channel positions : Front: L R
Sampling rate : 44.1 kHz
Frame rate : 43.066 FPS (1024 SPF)
Compression mode : Lossy
Delay relative to video : -33 ms
Stream size : 37.4 MiB (2%)
Default : Yes
Forced : No





Killing Eve S01E05


Killing Eve S01E05


Killing Eve S01E05


Killing Eve S01E05


Killing Eve S01E05

All episodes