Featured TV Shows


Killing Eve S01E05

Posted By: Tavaz
720p (HD) / WEBRip IMDb
Killing Eve S01E05

Killing Eve S01E05
WEBRip | MKV | 1280x720 | English | H264 @ 2432 kbps | AAC @ 93 kbps | 41 min 41 s | 747 MiB
Genre: Crime, Drama

A security consultant hunts for a ruthless assassin. Based on the Villanelle novellas by Luke Jennings.

449b14eb8a04449a9f62beb54d2d55ba.mkv (746.6 MB)



General
Unique ID : 250242889353816272710841983074210330825 (0xBC430703884945B21B904C9D3E8AB8C9)
Complete name : ./449b14eb8a04449a9f62beb54d2d55ba.mkv
Format : Matroska
Format version : Version 4 / Version 2
File size : 747 MiB
Duration : 41 min 41 s
Overall bit rate : 2 504 kb/s
Encoded date : UTC 2018-05-07 02:20:04
Writing application : mkvmerge v21.0.0 ('Tardigrades Will Inherit The Earth') 64-bit
Writing library : libebml v1.3.5 + libmatroska v1.4.8

Video
ID : 1
Format : AVC
Format/Info : Advanced Video Codec
Format profile : Main@L3.1
Format settings : CABAC / 3 Ref Frames
Format settings, CABAC : Yes
Format settings, RefFrames : 3 frames
Codec ID : V_MPEG4/ISO/AVC
Duration : 41 min 41 s
Bit rate mode : Constant
Bit rate : 2 432 kb/s
Width : 1 280 pixels
Height : 720 pixels
Display aspect ratio : 16:9
Frame rate mode : Constant
Frame rate : 29.970 (30000/1001) FPS
Color space : YUV
Chroma subsampling : 4:2:0
Bit depth : 8 bits
Scan type : Progressive
Bits/(Pixel*Frame) : 0.088
Stream size : 718 MiB (96%)
Default : Yes
Forced : No

Audio
ID : 2
Format : AAC
Format/Info : Advanced Audio Codec
Format profile : LC
Codec ID : A_AAC-2
Duration : 41 min 41 s
Bit rate : 93.6 kb/s
Channel(s) : 2 channels
Channel positions : Front: L R
Sampling rate : 44.1 kHz
Frame rate : 43.066 FPS (1024 SPF)
Compression mode : Lossy
Delay relative to video : -33 ms
Stream size : 27.9 MiB (4%)
Default : Yes
Forced : No





Killing Eve S01E05


Killing Eve S01E05


Killing Eve S01E05


Killing Eve S01E05


Killing Eve S01E05

All episodes