Featured TV Shows


Killing Eve S01E06

Posted By: Tavaz
1080p (FullHD) / WEBRip IMDb
Killing Eve S01E06

Killing Eve S01E06
WEBRip | MKV | 1920x1080 | English | H264 @ 8000 kbps | AAC @ 125 kbps | 42 min 13 s | 2.37 GiB
Genre: Crime, Drama

A security consultant hunts for a ruthless assassin. Based on the Villanelle novellas by Luke Jennings.

e7517fc7d5d44291900393f21b5c1bcd.mkv (2.4 GB)



General
Unique ID : 52783487836286332750855853243296916399 (0x27B5BADFEC909D3476E34CC3DF0C23AF)
Complete name : ./e7517fc7d5d44291900393f21b5c1bcd.mkv
Format : Matroska
Format version : Version 4 / Version 2
File size : 2.37 GiB
Duration : 42 min 13 s
Overall bit rate : 8 030 kb/s
Encoded date : UTC 2018-05-14 02:16:37
Writing application : mkvmerge v23.0.0 ('The Bride Said No') 64-bit
Writing library : libebml v1.3.6 + libmatroska v1.4.9

Video
ID : 1
Format : AVC
Format/Info : Advanced Video Codec
Format profile : High@L4
Format settings : CABAC / 3 Ref Frames
Format settings, CABAC : Yes
Format settings, RefFrames : 3 frames
Codec ID : V_MPEG4/ISO/AVC
Duration : 42 min 13 s
Bit rate mode : Constant
Bit rate : 8 000 kb/s
Width : 1 920 pixels
Height : 1 080 pixels
Display aspect ratio : 16:9
Frame rate mode : Constant
Frame rate : 29.970 (30000/1001) FPS
Color space : YUV
Chroma subsampling : 4:2:0
Bit depth : 8 bits
Scan type : Progressive
Bits/(Pixel*Frame) : 0.129
Stream size : 2.33 GiB (98%)
Default : Yes
Forced : No

Audio
ID : 2
Format : AAC
Format/Info : Advanced Audio Codec
Format profile : LC
Codec ID : A_AAC-2
Duration : 42 min 13 s
Bit rate : 126 kb/s
Channel(s) : 2 channels
Channel positions : Front: L R
Sampling rate : 44.1 kHz
Frame rate : 43.066 FPS (1024 SPF)
Compression mode : Lossy
Delay relative to video : -33 ms
Stream size : 37.9 MiB (2%)
Default : Yes
Forced : No





Killing Eve S01E06


Killing Eve S01E06


Killing Eve S01E06


Killing Eve S01E06


Killing Eve S01E06

All episodes