Featured TV Shows


Killing Eve S01E06

Posted By: Tavaz
720p (HD) / WEBRip IMDb
Killing Eve S01E06

Killing Eve S01E06
WEBRip | MKV | 1280x720 | English | H264 @ 2432 kbps | AAC @ 93 kbps | 42 min 13 s | 756 MiB
Genre: Crime, Drama

A security consultant hunts for a ruthless assassin. Based on the Villanelle novellas by Luke Jennings.

f8d328bffabf45d291cacdd3195f3f38.mkv (756.3 MB)



General
Unique ID : 329607308415023738409079608204183287809 (0xF7F80EFAF0960CA0926E7EE032913801)
Complete name : ./f8d328bffabf45d291cacdd3195f3f38.mkv
Format : Matroska
Format version : Version 4 / Version 2
File size : 756 MiB
Duration : 42 min 13 s
Overall bit rate : 2 504 kb/s
Encoded date : UTC 2018-05-14 02:13:47
Writing application : mkvmerge v23.0.0 ('The Bride Said No') 64-bit
Writing library : libebml v1.3.6 + libmatroska v1.4.9

Video
ID : 1
Format : AVC
Format/Info : Advanced Video Codec
Format profile : Main@L3.1
Format settings : CABAC / 3 Ref Frames
Format settings, CABAC : Yes
Format settings, RefFrames : 3 frames
Codec ID : V_MPEG4/ISO/AVC
Duration : 42 min 13 s
Bit rate mode : Constant
Bit rate : 2 432 kb/s
Width : 1 280 pixels
Height : 720 pixels
Display aspect ratio : 16:9
Frame rate mode : Constant
Frame rate : 29.970 (30000/1001) FPS
Color space : YUV
Chroma subsampling : 4:2:0
Bit depth : 8 bits
Scan type : Progressive
Bits/(Pixel*Frame) : 0.088
Stream size : 727 MiB (96%)
Default : Yes
Forced : No

Audio
ID : 2
Format : AAC
Format/Info : Advanced Audio Codec
Format profile : LC
Codec ID : A_AAC-2
Duration : 42 min 13 s
Bit rate : 93.6 kb/s
Channel(s) : 2 channels
Channel positions : Front: L R
Sampling rate : 44.1 kHz
Frame rate : 43.066 FPS (1024 SPF)
Compression mode : Lossy
Delay relative to video : -33 ms
Stream size : 28.3 MiB (4%)
Default : Yes
Forced : No





Killing Eve S01E06


Killing Eve S01E06


Killing Eve S01E06


Killing Eve S01E06


Killing Eve S01E06

All episodes