Featured TV Shows


Killing Eve S01E07

Posted By: Tavaz
SD / HDTV IMDb
Killing Eve S01E07

Killing Eve S01E07
HDTV | MKV | 720x404 | English | H264 @ 536 kbps | AAC @ 100 kbps | 41 min 27 s | 190 MiB
Subtitles: English
Genre: Crime, Drama

A security consultant hunts for a ruthless assassin. Based on the Villanelle novellas by Luke Jennings.

killing.eve.s01e07.hdtv.x264-w4f.1.r06 (19.1 MB)
killing.eve.s01e07.hdtv.x264-w4f.1.r01 (19.1 MB)
killing.eve.s01e07.hdtv.x264-w4f.1.r08 (17.9 MB)
killing.eve.s01e07.hdtv.x264-w4f.1.r07 (19.1 MB)
killing.eve.s01e07.hdtv.x264-w4f.1.r05 (19.1 MB)
killing.eve.s01e07.hdtv.x264-w4f.1.r00 (19.1 MB)
killing.eve.s01e07.hdtv.x264-w4f-sample.mkv (3.6 MB)
killing.eve.s01e07.hdtv.x264-w4f.mkv (189.5 MB)
killing.eve.s01e07.hdtv.x264-w4f.1.r03 (19.1 MB)



General
Unique ID : 231674959737056428043491728167197645643 (0xAE4AF96748905C0A9B93AAC3DD2A9B4B)
Complete name : ./killing.eve.s01e07.hdtv.x264-w4f.mkv
Format : Matroska
Format version : Version 4 / Version 2
File size : 190 MiB
Duration : 41 min 27 s
Overall bit rate : 639 kb/s
Encoded date : UTC 2018-05-21 01:33:27
Writing application : mkvmerge v9.7.1 ('Pandemonium') 64bit
Writing library : libebml v1.3.4 + libmatroska v1.4.5

Video
ID : 1
Format : AVC
Format/Info : Advanced Video Codec
Format profile : High@L3.1
Format settings : CABAC / 5 Ref Frames
Format settings, CABAC : Yes
Format settings, RefFrames : 5 frames
Codec ID : V_MPEG4/ISO/AVC
Duration : 41 min 27 s
Bit rate : 536 kb/s
Width : 720 pixels
Height : 404 pixels
Display aspect ratio : 16:9
Frame rate mode : Constant
Frame rate : 25.000 FPS
Color space : YUV
Chroma subsampling : 4:2:0
Bit depth : 8 bits
Scan type : Progressive
Bits/(Pixel*Frame) : 0.074
Stream size : 159 MiB (84%)
Writing library : x264 core 155 r2901 7d0ff22
Encoding settings : cabac=1 / ref=5 / deblock=1:0:0 / analyse=0x3:0x113 / me=hex / subme=8 / psy=1 / psy_rd=1.00:0.00 / mixed_ref=1 / me_range=16 / chroma_me=1 / trellis=2 / 8x8dct=1 / cqm=0 / deadzone=21,11 / fast_pskip=1 / chroma_qp_offset=-2 / threads=13 / lookahead_threads=2 / sliced_threads=0 / nr=0 / decimate=1 / interlaced=0 / bluray_compat=0 / constrained_intra=0 / bframes=3 / b_pyramid=2 / b_adapt=1 / b_bias=0 / direct=3 / weightb=1 / open_gop=0 / weightp=2 / keyint=250 / keyint_min=25 / scenecut=40 / intra_refresh=0 / rc_lookahead=50 / rc=crf / mbtree=1 / crf=19.0 / qcomp=0.60 / qpmin=0 / qpmax=69 / qpstep=4 / ip_ratio=1.40 / aq=1:1.00
Default : Yes
Forced : No
Color range : Limited
Matrix coefficients : BT.709

Audio
ID : 2
Format : AAC
Format/Info : Advanced Audio Codec
Format profile : LC
Codec ID : A_AAC-2
Duration : 41 min 27 s
Bit rate : 100 kb/s
Channel(s) : 2 channels
Channel positions : Front: L R
Sampling rate : 48.0 kHz
Frame rate : 46.875 FPS (1024 SPF)
Compression mode : Lossy
Delay relative to video : 20 ms
Stream size : 29.7 MiB (16%)
Language : English
Default : Yes
Forced : No

Text
ID : 3
Format : UTF-8
Codec ID : S_TEXT/UTF8
Codec ID/Info : UTF-8 Plain Text
Duration : 33 min 23 s
Bit rate : 0 b/s
Count of elements : 3
Stream size : 93.0 Bytes (0%)
Language : English
Default : No
Forced : No





Killing Eve S01E07


Killing Eve S01E07


Killing Eve S01E07


Killing Eve S01E07


Killing Eve S01E07

All episodes