Featured TV Shows


Killing Eve S01E08

Posted By: Tavaz
1080p (FullHD) / WEBRip IMDb
Killing Eve S01E08

Killing Eve S01E08
WEBRip | MKV | 1920x1080 | English | H264 @ 8000 kbps | AAC @ 125 kbps | 41 min 55 s | 2.35 GiB
Genre: Crime, Drama

A security consultant hunts for a ruthless assassin. Based on the Villanelle novellas by Luke Jennings.

f7b98c0600604655ab1a36743fa6f552.mkv (2.3 GB)



General
Unique ID : 62048162675736525935052480534911192609 (0x2EAE0A9C6931A5F0FAEE8D79BD5D0E21)
Complete name : ./f7b98c0600604655ab1a36743fa6f552.mkv
Format : Matroska
Format version : Version 4 / Version 2
File size : 2.35 GiB
Duration : 41 min 55 s
Overall bit rate : 8 020 kb/s
Encoded date : UTC 2018-05-28 02:33:58
Writing application : mkvmerge v23.0.0 ('The Bride Said No') 64-bit
Writing library : libebml v1.3.6 + libmatroska v1.4.9

Video
ID : 1
Format : AVC
Format/Info : Advanced Video Codec
Format profile : High@L4
Format settings : CABAC / 3 Ref Frames
Format settings, CABAC : Yes
Format settings, RefFrames : 3 frames
Codec ID : V_MPEG4/ISO/AVC
Duration : 41 min 55 s
Bit rate mode : Constant
Bit rate : 8 000 kb/s
Width : 1 920 pixels
Height : 1 080 pixels
Display aspect ratio : 16:9
Frame rate mode : Constant
Frame rate : 29.970 (30000/1001) FPS
Color space : YUV
Chroma subsampling : 4:2:0
Bit depth : 8 bits
Scan type : Progressive
Bits/(Pixel*Frame) : 0.129
Stream size : 2.31 GiB (98%)
Default : Yes
Forced : No

Audio
ID : 2
Format : AAC
Format/Info : Advanced Audio Codec
Format profile : LC
Codec ID : A_AAC-2
Duration : 41 min 55 s
Bit rate : 126 kb/s
Channel(s) : 2 channels
Channel positions : Front: L R
Sampling rate : 44.1 kHz
Frame rate : 43.066 FPS (1024 SPF)
Compression mode : Lossy
Delay relative to video : -33 ms
Stream size : 37.7 MiB (2%)
Default : Yes
Forced : No





Killing Eve S01E08


Killing Eve S01E08


Killing Eve S01E08


Killing Eve S01E08


Killing Eve S01E08

All episodes