Featured TV Shows


Killing Eve S01E08

Posted By: Tavaz
1080p (FullHD) / BDRip IMDb
Killing Eve S01E08

Killing Eve S01E08
BluRay Remux | MKV | 1920x1080 | English | H264 @ 31474 kbps | DTS | 41 min 45 s | 10.4 GiB
Subtitles: English
Genre: Crime, Drama

A security consultant hunts for a ruthless assassin. Equally obsessed with each other, they go head to head in an epic game of cat-and-mouse.

Killing.Eve.S01E08.God.Im.Tired.1080p.BluRay.REMUX.AVC.DTS-HD.MA.5.1-EPSiLON-WhiteRev=4dac82bfe9a9a8e0175e03be6ce0d63542f75da7.part1.rar (5.4 GB)
Killing.Eve.S01E08.God.Im.Tired.1080p.BluRay.REMUX.AVC.DTS-HD.MA.5.1-EPSiLON-WhiteRev=4dac82bfe9a9a8e0175e03be6ce0d63542f75da7.part2.rar (5.0 GB)



General
Unique ID : 219625672361041075647594512138087008374 (0xA53A5DAB5608844F93184F9BFCF18876)
Complete name : ./e270a9a70c6941869bb0e1c37fbcf2ac.mkv
Format : Matroska
Format version : Version 4 / Version 2
File size : 10.4 GiB
Duration : 41 min 45 s
Overall bit rate mode : Variable
Overall bit rate : 35.6 Mb/s
Encoded date : UTC 2018-10-10 06:50:48
Writing application : mkvmerge v27.0.0 ('Metropolis') 64-bit
Writing library : libebml v1.3.6 + libmatroska v1.4.9

Video
ID : 1
Format : AVC
Format/Info : Advanced Video Codec
Format profile : High@L4.1
Format settings : CABAC / 4 Ref Frames
Format settings, CABAC : Yes
Format settings, RefFrames : 4 frames
Format settings, GOP : M=3, N=12
Codec ID : V_MPEG4/ISO/AVC
Duration : 41 min 45 s
Bit rate mode : Variable
Bit rate : 31.5 Mb/s
Maximum bit rate : 34.0 Mb/s
Width : 1 920 pixels
Height : 1 080 pixels
Display aspect ratio : 16:9
Frame rate mode : Constant
Frame rate : 23.976 (24000/1001) FPS
Standard : NTSC
Color space : YUV
Chroma subsampling : 4:2:0
Bit depth : 8 bits
Scan type : Progressive
Bits/(Pixel*Frame) : 0.633
Stream size : 9.18 GiB (88%)
Title : MPEG-4 AVC Video / 31470 kbps / 1080p / 23.976 fps / 16:9 / High Profile 4.1
Language : English
Default : Yes
Forced : No
Color range : Limited
Color primaries : BT.709
Transfer characteristics : BT.709
Matrix coefficients : BT.709

Audio
ID : 2
Format : DTS
Format/Info : Digital Theater Systems
Format profile : MA / Core
Mode : 16
Format settings, Endianness : Big
Codec ID : A_DTS
Duration : 41 min 45 s
Bit rate mode : Variable / Constant
Bit rate : 4 064 kb/s / 1 509 kb/s
Channel(s) : 6 channels
Channel positions : Front: L C R, Side: L R, LFE
Sampling rate : 48.0 kHz
Frame rate : 93.750 FPS (512 SPF)
Bit depth : 24 bits
Compression mode : Lossless / Lossy
Stream size : 1.19 GiB (11%)
Title : DTS-HD Master Audio / 5.1 / 48 kHz / 4075 kbps / 24-bit
Language : English
Default : Yes
Forced : No

Text
ID : 3
Format : PGS
Codec ID : S_HDMV/PGS
Codec ID/Info : Picture based subtitle format used on BDs/HD-DVDs
Duration : 41 min 14 s
Bit rate : 38.2 kb/s
Count of elements : 909
Stream size : 11.3 MiB (0%)
Title : SDH
Language : English
Default : No
Forced : No

Menu
00:00:00.000 : :Chapter 1
00:06:02.362 : :Chapter 2
00:12:27.080 : :Chapter 3
00:18:02.915 : :Chapter 4
00:24:51.615 : :Chapter 5
00:30:35.333 : :Chapter 6
00:37:45.805 : :Chapter 7
00:41:14.389 : :Chapter 8





Killing Eve S01E08


Killing Eve S01E08


Killing Eve S01E08


Killing Eve S01E08


Killing Eve S01E08

All episodes