Featured TV Shows


Killing Eve S02E01

Posted By: Tavaz
1080p (FullHD) / WEB-DL IMDb
Killing Eve S02E01

Killing Eve S02E01
WEB-DL | MKV | 1920x1080 | English | H264 @ 5000 kbps | AAC @ 125 kbps | 42 min 43 s | 1.53 GiB
Subtitles: English
Genre: Crime, Drama

A security consultant hunts for a ruthless assassin. Equally obsessed with each other, they go head to head in an epic game of cat-and-mouse.

7b2db710f8e74168a658f2d688149df5.mkv (1.5 GB)



General
Unique ID : 177863195869460351765502648036601683496 (0x85CF349B2F735B04AB88A0D2EBE4DE28)
Complete name : ./7b2db710f8e74168a658f2d688149df5.mkv
Format : Matroska
Format version : Version 4 / Version 2
File size : 1.53 GiB
Duration : 42 min 43 s
Overall bit rate : 5 122 kb/s
Movie name : CMRG
Encoded date : UTC 2019-04-08 05:08:11
Writing application : mkvmerge v11.0.0 ('Alive') 64bit
Writing library : libebml v1.3.4 + libmatroska v1.4.5

Video
ID : 1
Format : AVC
Format/Info : Advanced Video Codec
Format profile : High@L4
Format settings : CABAC / 3 Ref Frames
Format settings, CABAC : Yes
Format settings, RefFrames : 3 frames
Codec ID : V_MPEG4/ISO/AVC
Duration : 42 min 43 s
Bit rate mode : Constant
Bit rate : 5 000 kb/s
Width : 1 920 pixels
Height : 1 080 pixels
Display aspect ratio : 16:9
Frame rate mode : Constant
Frame rate : 29.970 (30000/1001) FPS
Color space : YUV
Chroma subsampling : 4:2:0
Bit depth : 8 bits
Scan type : Progressive
Bits/(Pixel*Frame) : 0.080
Stream size : 1.49 GiB (97%)
Default : Yes
Forced : No

Audio
ID : 2
Format : AAC
Format/Info : Advanced Audio Codec
Format profile : LC
Codec ID : A_AAC-2
Duration : 42 min 43 s
Bit rate : 126 kb/s
Channel(s) : 2 channels
Channel positions : Front: L R
Sampling rate : 44.1 kHz
Frame rate : 43.066 FPS (1024 SPF)
Compression mode : Lossy
Delay relative to video : -36 ms
Stream size : 38.4 MiB (2%)
Language : English
Default : Yes
Forced : No

Text
ID : 3
Format : UTF-8
Codec ID : S_TEXT/UTF8
Codec ID/Info : UTF-8 Plain Text
Duration : 42 min 4 s
Bit rate : 59 b/s
Count of elements : 745
Stream size : 18.3 KiB (0%)
Language : English
Default : Yes
Forced : No





Killing Eve S02E01


Killing Eve S02E01


Killing Eve S02E01


Killing Eve S02E01


Killing Eve S02E01

All episodes