Featured TV Shows


Killing Eve S02E01

Posted By: Tavaz
1080p (FullHD) / WEBRip IMDb
Killing Eve S02E01

Killing Eve S02E01
WEBRip | MKV | 1920x1080 | Italian / English | H264 @ 7000 kbps | E-AC-3 @ 400 kbps | 42 min 31 s | 2.23 GiB
Subtitles: English, Italian
Genre: Crime, Drama

A security consultant hunts for a ruthless assassin. Equally obsessed with each other, they go head to head in an epic game of cat-and-mouse.

killing.eve.s02e01.italian.multi.1080p.web.h264-hwd.sample.mkv (54.7 MB)
Killing.Eve.S02E01.iTALiAN.MULTi.1080p.WEB.H264-HWD.mkv (2.2 GB)



General
Unique ID : 76710298839177045327972984932968777594 (0x39B5DDBC834446B0E12048FA5145477A)
Complete name : ./Killing.Eve.S02E01.iTALiAN.MULTi.1080p.WEB.H264-HWD.mkv
Format : Matroska
Format version : Version 4 / Version 2
File size : 2.23 GiB
Duration : 42 min 31 s
Overall bit rate : 7 501 kb/s
Encoded date : UTC 2019-04-08 21:11:58
Writing application : mkvmerge v29.0.0 ('Like It Or Not') 64-bit
Writing library : libebml v1.3.6 + libmatroska v1.4.9

Video
ID : 1
Format : AVC
Format/Info : Advanced Video Codec
Format profile : Main@L5.1
Format settings : CABAC / 4 Ref Frames
Format settings, CABAC : Yes
Format settings, RefFrames : 4 frames
Codec ID : V_MPEG4/ISO/AVC
Duration : 42 min 31 s
Bit rate mode : Constant
Bit rate : 7 000 kb/s
Width : 1 920 pixels
Height : 1 080 pixels
Display aspect ratio : 16:9
Frame rate mode : Constant
Frame rate : 25.000 FPS
Standard : Component
Color space : YUV
Chroma subsampling : 4:2:0
Bit depth : 8 bits
Scan type : Progressive
Bits/(Pixel*Frame) : 0.135
Stream size : 2.05 GiB (92%)
Default : Yes
Forced : No
Color range : Limited
Color primaries : BT.709
Transfer characteristics : BT.709
Matrix coefficients : BT.709

Audio #1
ID : 2
Format : E-AC-3
Format/Info : Enhanced Audio Coding 3
Format settings, Endianness : Big
Codec ID : A_EAC3
Duration : 42 min 31 s
Bit rate mode : Constant
Bit rate : 400 kb/s
Channel(s) : 6 channels
Channel positions : Front: L C R, Side: L R, LFE
Sampling rate : 48.0 kHz
Frame rate : 187.500 FPS (256 SPF)
Compression mode : Lossy
Stream size : 122 MiB (5%)
Title : Italian
Language : Italian
Service kind : Complete Main
Default : Yes
Forced : No

Audio #2
ID : 3
Format : AAC
Format/Info : Advanced Audio Codec
Format profile : LC
Codec ID : A_AAC-2
Duration : 42 min 31 s
Bit rate : 192 kb/s
Channel(s) : 2 channels
Channel positions : Front: L R
Sampling rate : 48.0 kHz
Frame rate : 46.875 FPS (1024 SPF)
Compression mode : Lossy
Stream size : 58.4 MiB (3%)
Title : English
Language : English
Default : No
Forced : No

Text #1
ID : 4
Format : UTF-8
Codec ID : S_TEXT/UTF8
Codec ID/Info : UTF-8 Plain Text
Duration : 41 min 44 s
Bit rate : 38 b/s
Count of elements : 359
Stream size : 11.7 KiB (0%)
Title : Italian
Language : Italian
Default : No
Forced : No

Text #2
ID : 5
Format : UTF-8
Codec ID : S_TEXT/UTF8
Codec ID/Info : UTF-8 Plain Text
Duration : 41 min 44 s
Bit rate : 42 b/s
Count of elements : 412
Stream size : 13.1 KiB (0%)
Title : English
Language : English
Default : No
Forced : No





Killing Eve S02E01


Killing Eve S02E01


Killing Eve S02E01


Killing Eve S02E01


Killing Eve S02E01

All episodes