Featured TV Shows


Killing Eve S02E02

Posted By: Tavaz
720p (HD) / HDTV IMDb
Killing Eve S02E02

Killing Eve S02E02
HDTV | MKV | 1280x720 | English | H264 @ 2076 kbps | AC-3 @ 384 kbps | 41 min 26 s | 730 MiB
Subtitles: English
Genre: Crime, Drama


A security consultant hunts for a ruthless assassin. Equally obsessed with each other, they go head to head in an epic game of cat-and-mouse.

killing.eve.s02e02.720p.hdtv.x264-lucidtv.mkv (730.0 MB)



General
Unique ID : 142526359222735189113760460271629514491 (0x6B39940C119EF5872D6622F6F28A36FB)
Complete name : ./killing.eve.s02e02.720p.hdtv.x264-lucidtv.mkv
Format : Matroska
Format version : Version 4 / Version 2
File size : 730 MiB
Duration : 41 min 26 s
Overall bit rate : 2 463 kb/s
Movie name : Killing.Eve.S02E02.720p.HDTV.x264-LucidTV
Encoded date : UTC 2019-04-15 01:04:29
Writing application : mkvmerge v32.0.0 ('Astral Progressions') 64-bit
Writing library : libebml v1.3.7 + libmatroska v1.5.0

Video
ID : 1
Format : AVC
Format/Info : Advanced Video Codec
Format profile : High@L4.1
Format settings : CABAC / 5 Ref Frames
Format settings, CABAC : Yes
Format settings, RefFrames : 5 frames
Codec ID : V_MPEG4/ISO/AVC
Duration : 41 min 26 s
Bit rate : 2 077 kb/s
Width : 1 280 pixels
Height : 720 pixels
Display aspect ratio : 16:9
Frame rate mode : Constant
Frame rate : 25.000 FPS
Color space : YUV
Chroma subsampling : 4:2:0
Bit depth : 8 bits
Scan type : Progressive
Bits/(Pixel*Frame) : 0.090
Stream size : 616 MiB (84%)
Writing library : x264 core 157 r2969 d4099dd
Encoding settings : cabac=1 / ref=5 / deblock=1:0:0 / analyse=0x3:0x113 / me=hex / subme=8 / psy=1 / psy_rd=1.00:0.00 / mixed_ref=1 / me_range=16 / chroma_me=1 / trellis=2 / 8x8dct=1 / cqm=0 / deadzone=21,11 / fast_pskip=1 / chroma_qp_offset=-2 / threads=22 / lookahead_threads=3 / sliced_threads=0 / nr=0 / decimate=1 / interlaced=0 / bluray_compat=0 / constrained_intra=0 / bframes=3 / b_pyramid=2 / b_adapt=1 / b_bias=0 / direct=3 / weightb=1 / open_gop=0 / weightp=2 / keyint=250 / keyint_min=25 / scenecut=40 / intra_refresh=0 / rc_lookahead=50 / rc=crf / mbtree=1 / crf=18.0 / qcomp=0.60 / qpmin=0 / qpmax=69 / qpstep=4 / ip_ratio=1.40 / aq=1:1.00
Language : English
Default : Yes
Forced : No

Audio
ID : 2
Format : AC-3
Format/Info : Audio Coding 3
Format settings, Endianness : Big
Codec ID : A_AC3
Duration : 41 min 26 s
Bit rate mode : Constant
Bit rate : 384 kb/s
Channel(s) : 6 channels
Channel positions : Front: L C R, Side: L R, LFE
Sampling rate : 48.0 kHz
Frame rate : 31.250 FPS (1536 SPF)
Bit depth : 16 bits
Compression mode : Lossy
Stream size : 114 MiB (16%)
Language : English
Service kind : Complete Main
Default : Yes
Forced : No

Text
ID : 3
Format : UTF-8
Codec ID : S_TEXT/UTF8
Codec ID/Info : UTF-8 Plain Text
Duration : 41 min 22 s
Bit rate : 91 b/s
Count of elements : 749
Stream size : 27.6 KiB (0%)
Language : English
Default : No
Forced : No





Killing Eve S02E02


Killing Eve S02E02


Killing Eve S02E02


Killing Eve S02E02


Killing Eve S02E02

All episodes