Featured TV Shows


Killing Eve S02E03

Posted By: Tavaz
1080p (FullHD) / WEBRip IMDb
Killing Eve S02E03

Killing Eve S02E03
WEBRip | MKV | 1920x1080 | English | H264 @ 5756 kbps | E-AC-3 @ 640 kbps | 42 min 14 s | 1.89 GiB
Subtitles: English
Genre: Crime, Drama


A security consultant hunts for a ruthless assassin. Equally obsessed with each other, they go head to head in an epic game of cat-and-mouse.

Killing.Eve.S02E03.1080p.WEB.H264-AMCON.mkv (1.9 GB)
killing.eve.s02e03.1080p.web.h264-amcon-sample.mkv (8.3 MB)



General
Unique ID : 135046425697046224931738632654113261537 (0x6598FED9F4ABA23C6884D29FAA98C7E1)
Complete name : ./Killing.Eve.S02E03.1080p.WEB.H264-AMCON.mkv
Format : Matroska
Format version : Version 4 / Version 2
File size : 1.89 GiB
Duration : 42 min 14 s
Overall bit rate : 6 399 kb/s
Encoded date : UTC 2019-04-22 07:05:12
Writing application : mkvmerge v33.1.0 ('Primrose') 64-bit
Writing library : libebml v1.3.7 + libmatroska v1.5.0

Video
ID : 1
Format : AVC
Format/Info : Advanced Video Codec
Format profile : High@L4
Format settings : CABAC / 4 Ref Frames
Format settings, CABAC : Yes
Format settings, RefFrames : 4 frames
Codec ID : V_MPEG4/ISO/AVC
Duration : 42 min 14 s
Bit rate mode : Constant
Bit rate : 5 757 kb/s
Nominal bit rate : 10 000 kb/s
Width : 1 920 pixels
Height : 1 080 pixels
Display aspect ratio : 16:9
Frame rate mode : Constant
Frame rate : 25.000 FPS
Color space : YUV
Chroma subsampling : 4:2:0
Bit depth : 8 bits
Scan type : Progressive
Bits/(Pixel*Frame) : 0.111
Stream size : 1.70 GiB (90%)
Language : English
Default : Yes
Forced : No
Color range : Limited
Color primaries : BT.709
Transfer characteristics : BT.709
Matrix coefficients : BT.709

Audio
ID : 2
Format : E-AC-3
Format/Info : Enhanced Audio Coding 3
Format settings, Endianness : Big
Codec ID : A_EAC3
Duration : 42 min 14 s
Bit rate mode : Constant
Bit rate : 640 kb/s
Channel(s) : 6 channels
Channel positions : Front: L C R, Side: L R, LFE
Sampling rate : 48.0 kHz
Frame rate : 187.500 FPS (256 SPF)
Compression mode : Lossy
Stream size : 193 MiB (10%)
Language : English
Service kind : Complete Main
Default : Yes
Forced : No

Text
ID : 3
Format : UTF-8
Codec ID : S_TEXT/UTF8
Codec ID/Info : UTF-8 Plain Text
Duration : 41 min 37 s
Bit rate : 51 b/s
Count of elements : 608
Stream size : 15.8 KiB (0%)
Title : English
Language : English
Default : No
Forced : No





Killing Eve S02E03


Killing Eve S02E03


Killing Eve S02E03


Killing Eve S02E03


Killing Eve S02E03

All episodes