Featured TV Shows


Killing Eve S02E03

Posted By: Tavaz
1080p (FullHD) / WEBRip IMDb
Killing Eve S02E03

Killing Eve S02E03
WEBRip | MKV | 1920x1080 | Italian / English | H264 @ 7000 kbps | E-AC-3 @ 400 kbps | 42 min 47 s | 2.25 GiB
Subtitles: English, Italian
Genre: Crime, Dramma


Eve è un agente di sicurezza dell’MI5 insoddisfatta di un lavoro da scrivania. Villanelle è una killer di talento che vive nel lusso che il suo lavoro violento le consente. Le due donne, ossessionate l'una dall'altra, giocheranno al gatto e al topo…

killing.eve.s02e03.italian.multi.1080p.web.h264-hwd.sample.mkv (54.0 MB)
Killing.Eve.S02E03.iTALiAN.MULTi.1080p.WEB.H264-HWD.mkv (2.2 GB)



General
Unique ID : 261641650053253222677053758206475278993 (0xC4D6594E78F2E81DB7941F132FEC9A91)
Complete name : ./Killing.Eve.S02E03.iTALiAN.MULTi.1080p.WEB.H264-HWD.mkv
Format : Matroska
Format version : Version 4 / Version 2
File size : 2.25 GiB
Duration : 42 min 47 s
Overall bit rate : 7 511 kb/s
Encoded date : UTC 2019-04-22 00:14:00
Writing application : mkvmerge v29.0.0 ('Like It Or Not') 64-bit
Writing library : libebml v1.3.6 + libmatroska v1.4.9

Video
ID : 1
Format : AVC
Format/Info : Advanced Video Codec
Format profile : Main@L5.1
Format settings : CABAC / 4 Ref Frames
Format settings, CABAC : Yes
Format settings, RefFrames : 4 frames
Codec ID : V_MPEG4/ISO/AVC
Duration : 42 min 47 s
Bit rate mode : Constant
Bit rate : 7 000 kb/s
Width : 1 920 pixels
Height : 1 080 pixels
Display aspect ratio : 16:9
Frame rate mode : Constant
Frame rate : 25.000 FPS
Standard : Component
Color space : YUV
Chroma subsampling : 4:2:0
Bit depth : 8 bits
Scan type : Progressive
Bits/(Pixel*Frame) : 0.135
Stream size : 2.07 GiB (92%)
Default : Yes
Forced : No
Color range : Limited
Color primaries : BT.709
Transfer characteristics : BT.709
Matrix coefficients : BT.709

Audio #1
ID : 2
Format : E-AC-3
Format/Info : Enhanced Audio Coding 3
Format settings, Endianness : Big
Codec ID : A_EAC3
Duration : 42 min 47 s
Bit rate mode : Constant
Bit rate : 400 kb/s
Channel(s) : 6 channels
Channel positions : Front: L C R, Side: L R, LFE
Sampling rate : 48.0 kHz
Frame rate : 187.500 FPS (256 SPF)
Compression mode : Lossy
Stream size : 122 MiB (5%)
Title : Italian
Language : Italian
Service kind : Complete Main
Default : Yes
Forced : No

Audio #2
ID : 3
Format : AAC
Format/Info : Advanced Audio Codec
Format profile : LC
Codec ID : A_AAC-2
Duration : 42 min 47 s
Bit rate : 192 kb/s
Channel(s) : 2 channels
Channel positions : Front: L R
Sampling rate : 48.0 kHz
Frame rate : 46.875 FPS (1024 SPF)
Compression mode : Lossy
Stream size : 58.8 MiB (3%)
Title : English
Language : English
Default : No
Forced : No

Text #1
ID : 4
Format : UTF-8
Codec ID : S_TEXT/UTF8
Codec ID/Info : UTF-8 Plain Text
Duration : 42 min 3 s
Bit rate : 44 b/s
Count of elements : 419
Stream size : 13.6 KiB (0%)
Title : Italian
Language : Italian
Default : No
Forced : No

Text #2
ID : 5
Format : UTF-8
Codec ID : S_TEXT/UTF8
Codec ID/Info : UTF-8 Plain Text
Duration : 42 min 3 s
Bit rate : 45 b/s
Count of elements : 422
Stream size : 13.9 KiB (0%)
Title : English
Language : English
Default : No
Forced : No





Killing Eve S02E03


Killing Eve S02E03


Killing Eve S02E03


Killing Eve S02E03


Killing Eve S02E03

All episodes