Featured TV Shows


Killing Eve S02E04

Posted By: Tavaz
1080p (FullHD) / WEBRip IMDb
Killing Eve S02E04

Killing Eve S02E04
WEBRip | MKV | 1920x1080 | English | H264 @ 7000 kbps | AAC @ 192 kbps | 41 min 12 s | 2.04 GiB
Subtitles: Italian, English
Genre: Crime, Drama


A security consultant hunts for a ruthless assassin. Equally obsessed with each other, they go head to head in an epic game of cat-and-mouse.

enc-killing.eve.s02e04.1080p.web.h264.mkv (2.0 GB)



General
Unique ID : 226149272019863468684516579947094128075 (0xAA22C3F70CF3F23E386CA3E4C752B5CB)
Complete name : ./enc-killing.eve.s02e04.1080p.web.h264.mkv
Format : Matroska
Format version : Version 4 / Version 2
File size : 2.04 GiB
Duration : 41 min 12 s
Overall bit rate : 7 096 kb/s
Encoded date : UTC 2019-04-29 05:10:05
Writing application : mkvmerge v33.1.0 ('Primrose') 64-bit
Writing library : libebml v1.3.7 + libmatroska v1.5.0

Video
ID : 2
Format : AVC
Format/Info : Advanced Video Codec
Format profile : Main@L5.1
Format settings : CABAC / 4 Ref Frames
Format settings, CABAC : Yes
Format settings, RefFrames : 4 frames
Codec ID : V_MPEG4/ISO/AVC
Duration : 41 min 12 s
Bit rate mode : Constant
Bit rate : 7 000 kb/s
Width : 1 920 pixels
Height : 1 080 pixels
Display aspect ratio : 16:9
Frame rate mode : Constant
Frame rate : 25.000 FPS
Standard : Component
Color space : YUV
Chroma subsampling : 4:2:0
Bit depth : 8 bits
Scan type : Progressive
Bits/(Pixel*Frame) : 0.135
Stream size : 1.99 GiB (97%)
Language : English
Default : Yes
Forced : No
Color range : Limited
Color primaries : BT.709
Transfer characteristics : BT.709
Matrix coefficients : BT.709

Audio
ID : 1
Format : AAC
Format/Info : Advanced Audio Codec
Format profile : LC
Codec ID : A_AAC-2
Duration : 41 min 12 s
Bit rate : 192 kb/s
Channel(s) : 2 channels
Channel positions : Front: L R
Sampling rate : 48.0 kHz
Frame rate : 46.875 FPS (1024 SPF)
Compression mode : Lossy
Stream size : 56.6 MiB (3%)
Language : English
Default : Yes
Forced : No

Text #1
ID : 3
Format : UTF-8
Codec ID : S_TEXT/UTF8
Codec ID/Info : UTF-8 Plain Text
Duration : 40 min 24 s
Bit rate : 46 b/s
Count of elements : 396
Stream size : 13.8 KiB (0%)
Language : English
Default : No
Forced : No

Text #2
ID : 4
Format : UTF-8
Codec ID : S_TEXT/UTF8
Codec ID/Info : UTF-8 Plain Text
Duration : 40 min 25 s
Bit rate : 46 b/s
Count of elements : 390
Stream size : 13.8 KiB (0%)
Language : Italian
Default : No
Forced : No





Killing Eve S02E04


Killing Eve S02E04


Killing Eve S02E04


Killing Eve S02E04


Killing Eve S02E04

All episodes