Featured TV Shows


Killing Eve S02E07

Posted By: Tavaz
Killing Eve S02E07

Killing Eve S02E07
MKV | 1920x1080 | English | H265 @ 379 kbps | AC-3 @ 384 kbps | 40 min 19 s | 225 MiB
Subtitles: English
Genre: Crime, Drama


A security consultant hunts for a ruthless assassin. Equally obsessed with each other, they go head to head in an epic game of cat-and-mouse.

4b358e83bc1940abbfc0b0c8e977e255.mkv (224.7 MB)



General
Unique ID : 168252171595786079058701337431908485449 (0x7E9430863F4B73E7327DD6699A9F0949)
Complete name : ./4b358e83bc1940abbfc0b0c8e977e255.mkv
Format : Matroska
Format version : Version 4 / Version 2
File size : 225 MiB
Duration : 40 min 19 s
Overall bit rate : 779 kb/s
Writing application : Lavf58.27.102
Writing library : Lavf58.27.102
ErrorDetectionType : Per level 1

Video
ID : 1
Format : HEVC
Format/Info : High Efficiency Video Coding
Format profile : Main 10@L4@Main
Codec ID : V_MPEGH/ISO/HEVC
Duration : 40 min 19 s
Bit rate : 379 kb/s
Width : 1 920 pixels
Height : 1 080 pixels
Display aspect ratio : 16:9
Frame rate mode : Constant
Frame rate : 25.000 FPS
Color space : YUV
Chroma subsampling : 4:2:0
Bit depth : 10 bits
Bits/(Pixel*Frame) : 0.007
Stream size : 109 MiB (49%)
Writing library : x265 3.0_Au+18-768ab38fd5fd:[Windows][GCC 8.3.1][64 bit] 10bit
Encoding settings : cpuid=1111039 / frame-threads=3 / numa-pools=8 / wpp / no-pmode / no-pme / no-psnr / no-ssim / log-level=2 / input-csp=1 / input-res=1920x1080 / interlace=0 / total-frames=0 / level-idc=0 / high-tier=1 / uhd-bd=0 / ref=1 / no-allow-non-conformance / no-repeat-headers / annexb / no-aud / no-hrd / info / hash=0 / no-temporal-layers / open-gop / min-keyint=25 / keyint=250 / gop-lookahead=0 / bframes=3 / b-adapt=0 / b-pyramid / bframe-bias=0 / rc-lookahead=5 / lookahead-slices=6 / scenecut=0 / radl=0 / no-splice / no-intra-refresh / ctu=32 / min-cu-size=16 / no-rect / no-amp / max-tu-size=32 / tu-inter-depth=1 / tu-intra-depth=1 / limit-tu=0 / rdoq-level=0 / dynamic-rd=0.00 / no-ssim-rd / no-signhide / no-tskip / nr-intra=0 / nr-inter=0 / no-constrained-intra / strong-intra-smoothing / max-merge=2 / limit-refs=0 / no-limit-modes / me=0 / subme=0 / merange=57 / temporal-mvp / no-weightp / no-weightb / no-analyze-src-pics / deblock=0:0 / no-sao / no-sao-non-deblock / rd=2 / early-skip / rskip / fast-intra / no-tskip-fast / no-cu-lossless / no-b-intra / no-splitrd-skip / rdpenalty=0 / psy-rd=2.00 / psy-rdoq=0.00 / no-rd-refine / no-lossless / cbqpoffs=0 / crqpoffs=0 / rc=crf / crf=23.0 / qcomp=0.60 / qpstep=4 / stats-write=0 / stats-read=0 / ipratio=1.40 / pbratio=1.30 / aq-mode=1 / aq-strength=0.00 / cutree / zone-count=0 / no-strict-cbr / qg-size=32 / no-rc-grain / qpmax=69 / qpmin=0 / no-const-vbv / sar=1 / overscan=0 / videoformat=5 / range=0 / colorprim=2 / transfer=2 / colormatrix=2 / chromaloc=0 / display-window=0 / max-cll=0,0 / min-luma=0 / max-luma=1023 / log2-max-poc-lsb=8 / vui-timing-info / vui-hrd-info / slices=1 / no-opt-qp-pps / no-opt-ref-list-length-pps / no-multi-pass-opt-rps / scenecut-bias=0.05 / no-opt-cu-delta-qp / no-aq-motion / no-hdr / no-hdr-opt / no-dhdr10-opt / no-idr-recovery-sei / analysis-reuse-level=5 / scale-factor=0 / refine-intra=0 / refine-inter=0 / refine-mv=0 / refine-ctu-distortion=0 / no-limit-sao / ctu-info=0 / no-lowpass-dct / refine-analysis-type=0 / copy-pic=1 / max-ausize-factor=1.0 / no-dynamic-refine / no-single-sei / no-hevc-aq / no-svt / qp-adaptation-range=1.00
Language : English
Default : Yes
Forced : No
Statistics Tags Issue : mkvmerge v30.1.0 ('Forever And More') 64-bit 2019-05-20 01:16:10 / Lavf58.27.102
FromStats_BitRate : 4750417
FromStats_Duration : 00:40:19.800000000
FromStats_FrameCount : 60491
FromStats_StreamSize : 1436877694

Audio
ID : 2
Format : AC-3
Format/Info : Audio Coding 3
Format settings, Endianness : Big
Codec ID : A_AC3
Duration : 40 min 19 s
Bit rate mode : Constant
Bit rate : 384 kb/s
Channel(s) : 6 channels
Channel positions : Front: L C R, Side: L R, LFE
Sampling rate : 48.0 kHz
Frame rate : 31.250 FPS (1536 SPF)
Bit depth : 16 bits
Compression mode : Lossy
Stream size : 111 MiB (49%)
Language : English
Service kind : Complete Main
Default : Yes
Forced : No
Statistics Tags Issue : mkvmerge v30.1.0 ('Forever And More') 64-bit 2019-05-20 01:16:10 / Lavf58.27.102
FromStats_BitRate : 384000
FromStats_Duration : 00:40:19.840000000
FromStats_FrameCount : 75620
FromStats_StreamSize : 116152320

Text
ID : 3
Format : ASS
Codec ID : S_TEXT/ASS
Codec ID/Info : Advanced Sub Station Alpha
Compression mode : Lossless
Writing library : Lavc58.51.100 ssa
Language : English
Default : No
Forced : No
Statistics Tags Issue : mkvmerge v30.1.0 ('Forever And More') 64-bit 2019-05-20 01:16:10 / Lavf58.27.102
FromStats_BitRate : 81
FromStats_Duration : 00:40:14.611000000
FromStats_FrameCount : 667
FromStats_StreamSize : 24515





Killing Eve S02E07


Killing Eve S02E07


Killing Eve S02E07


Killing Eve S02E07


Killing Eve S02E07

All episodes