Featured TV Shows


Killjoys S05E03

Posted By: Tavaz
Killjoys S05E03

Killjoys S05E03
MOV | 1280x720 | H264 @ 2026 kbps | AAC @ 192 kbps | 43 min 18 s | 689 MiB


Eine actiongeladene Abeteuerserie um drei interplanetare Kopfgeldjäger die durch politische Aufruhr, fragwürdige Moral und komplizierte Beziehungen navigieren.

Killjoys S05E03 - Three Killjoys and a Lady (Drei Killjoys und eine Lady) (German sub.) .mp4 (689.5 MB)



General
Complete name : ./Killjoys S05E03 - Three Killjoys and a Lady (Drei Killjoys und eine Lady) oder (Wer bist du) (German sub.)/Killjoys S05E03 - Three Killjoys and a Lady (Drei Killjoys und eine Lady) (German sub.) .mp4
Format : MPEG-4
Format profile : Base Media
Codec ID : isom (isom/iso2/avc1/mp41)
File size : 689 MiB
Duration : 43 min 18 s
Overall bit rate : 2 225 kb/s
Encoded date : UTC 2019-08-03 03:05:34
Tagged date : UTC 2019-08-03 03:05:34
Writing application : Lavf57.71.100

Video
ID : 1
Format : AVC
Format/Info : Advanced Video Codec
Format profile : Main@L3.1
Format settings : CABAC / 1 Ref Frames
Format settings, CABAC : Yes
Format settings, RefFrames : 1 frame
Format settings, GOP : M=1, N=25
Codec ID : avc1
Codec ID/Info : Advanced Video Coding
Duration : 43 min 18 s
Bit rate : 2 026 kb/s
Width : 1 280 pixels
Height : 720 pixels
Display aspect ratio : 16:9
Frame rate mode : Constant
Frame rate : 23.976 (24000/1001) FPS
Color space : YUV
Chroma subsampling : 4:2:0
Bit depth : 8 bits
Scan type : Progressive
Bits/(Pixel*Frame) : 0.092
Stream size : 628 MiB (91%)
Encoded date : UTC 2019-08-03 03:05:34
Tagged date : UTC 2019-08-03 03:05:34

Audio
ID : 2
Format : AAC
Format/Info : Advanced Audio Codec
Format profile : LC
Codec ID : mp4a-40-2
Duration : 43 min 18 s
Bit rate mode : Constant
Bit rate : 192 kb/s
Channel(s) : 2 channels
Channel positions : Front: L R
Sampling rate : 44.1 kHz
Frame rate : 43.066 FPS (1024 SPF)
Compression mode : Lossy
Stream size : 60.3 MiB (9%)
Default : Yes
Alternate group : 1
Encoded date : UTC 2019-08-03 03:05:34
Tagged date : UTC 2019-08-03 03:05:34





Killjoys S05E03


Killjoys S05E03


Killjoys S05E03


Killjoys S05E03


Killjoys S05E03

All episodes