Index
# A B C D E F G H I J K L M N O P Q R S T U V W Y Z
Tags
Language
Tags

Featured TV Shows


Kim's Convenience S02E11

Posted By: Tavaz
1080p (FullHD) / WEB-DL IMDb
Kim's Convenience S02E11

Kim's Convenience S02E11
WEB-DL | MKV | 1920x1080 | English | H264 @ 5195 kbps | AC-3 @ 384 kbps | 21 min 51 s | 872 MiB
Subtitles: English
Genre: Commedia


The funny, heartfelt story of The Kims, a Korean-Canadian family, running a convenience store in downtown Toronto. Mr. and Mrs. Kim ('Appa' and 'Umma') immigrated to Toronto in the 80's to set up shop near Regent Park and had two kids, Jung and Janet who are now young adults. However, when Jung was 16, he and Appa had a major falling out involving a physical fight, stolen money and Jung leaving home. Father and son have been estranged since.

012650c5c1a7471ba892738f8a50e879.mkv (872.4 MB)



General
Unique ID : 189747745433486499548555915970567835067 (0x8EC016239EF3528CB46F39BAD0998DBB)
Complete name : ./012650c5c1a7471ba892738f8a50e879.mkv
Format : Matroska
Format version : Version 4 / Version 2
File size : 872 MiB
Duration : 21 min 51 s
Overall bit rate : 5 581 kb/s
Movie name : Kim's Convenience - Good Neighbours [S02E11] WEB-DL - KiMCHi
Encoded date : UTC 2017-12-06 23:42:56
Writing application : mkvmerge v8.9.0 ('Father Daughter') 64bit
Writing library : libebml v1.3.3 + libmatroska v1.4.4

Video
ID : 1
Format : AVC
Format/Info : Advanced Video Codec
Format profile : High@L4
Format settings : CABAC / 4 Ref Frames
Format settings, CABAC : Yes
Format settings, RefFrames : 4 frames
Codec ID : V_MPEG4/ISO/AVC
Duration : 21 min 51 s
Bit rate : 5 195 kb/s
Width : 1 920 pixels
Height : 1 080 pixels
Display aspect ratio : 16:9
Frame rate mode : Constant
Frame rate : 23.976 (23976/1000) FPS
Color space : YUV
Chroma subsampling : 4:2:0
Bit depth : 8 bits
Scan type : Progressive
Bits/(Pixel*Frame) : 0.104
Stream size : 812 MiB (93%)
Language : English
Default : Yes
Forced : No
Color range : Limited
Color primaries : BT.709
Transfer characteristics : BT.709
Matrix coefficients : BT.709

Audio
ID : 2
Format : AC-3
Format/Info : Audio Coding 3
Format settings, Endianness : Big
Codec ID : A_AC3
Duration : 21 min 51 s
Bit rate mode : Constant
Bit rate : 384 kb/s
Channel(s) : 6 channels
Channel positions : Front: L C R, Side: L R, LFE
Sampling rate : 48.0 kHz
Frame rate : 31.250 FPS (1536 SPF)
Bit depth : 16 bits
Compression mode : Lossy
Stream size : 60.0 MiB (7%)
Language : English
Service kind : Complete Main
Default : Yes
Forced : No

Text
ID : 3
Format : UTF-8
Codec ID : S_TEXT/UTF8
Codec ID/Info : UTF-8 Plain Text
Duration : 21 min 16 s
Bit rate : 97 b/s
Count of elements : 493
Stream size : 15.2 KiB (0%)
Language : English
Default : Yes
Forced : No





Kim's Convenience S02E11


Kim's Convenience S02E11


Kim's Convenience S02E11


Kim's Convenience S02E11


Kim's Convenience S02E11

All episodes