Featured TV Shows


Knightfall S01E09

Posted By: Tavaz
SD / WEB-DL IMDb
Knightfall S01E09

Knightfall S01E09
WEB-DL | MOV | 720x404 | French | H264 @ 1488 kbps | AAC @ 157 kbps | 42 min 34 s | 502 MiB
Genre: Drame

Au Moyen Âge, l'ordre du Temple est l'ordre militaire le plus puissant, le plus riche et mystérieux. Parmi ses missions, la protection de la si précieuse relique du Christianisme - le Graal Saint - et la préservation d'immenses secrets jalousement gardés. De leurs relations complexes avec le Roi de France à la trahison qui va provoquer la chute des Templiers, focus sur cette fraternité légendaire de moines guerriers…

Knightfall.S01E09.FRENCH.LD.AMZN.WEB-DL.x264-FRATERNiTY.mp4 (502.3 MB)



General
Complete name : ./Knightfall.S01E09.FRENCH.LD.AMZN.WEB-DL.x264-FRATERNiTY.mp4
Format : MPEG-4
Format profile : Base Media
Codec ID : isom (isom/avc1)
File size : 502 MiB
Duration : 42 min 34 s
Overall bit rate mode : Variable
Overall bit rate : 1 650 kb/s
Encoded date : UTC 2018-03-09 16:13:03
Tagged date : UTC 2018-03-09 16:13:03

Video
ID : 1
Format : AVC
Format/Info : Advanced Video Codec
Format profile : High@L3.1
Format settings : CABAC / 5 Ref Frames
Format settings, CABAC : Yes
Format settings, RefFrames : 5 frames
Codec ID : avc1
Codec ID/Info : Advanced Video Coding
Duration : 42 min 33 s
Bit rate : 1 488 kb/s
Maximum bit rate : 7 416 kb/s
Width : 720 pixels
Height : 404 pixels
Display aspect ratio : 16:9
Frame rate mode : Constant
Frame rate : 23.976 (24000/1001) FPS
Color space : YUV
Chroma subsampling : 4:2:0
Bit depth : 8 bits
Scan type : Progressive
Bits/(Pixel*Frame) : 0.213
Stream size : 453 MiB (90%)
Title : Knightfall S01E09 FRENCH LD AMZN WEB-DL x264-FRATERNiTY
Writing library : x264 core 152 r2851 ba24899
Encoding settings : cabac=1 / ref=5 / deblock=1:0:0 / analyse=0x3:0x113 / me=umh / subme=9 / psy=1 / psy_rd=1.00:0.00 / mixed_ref=1 / me_range=16 / chroma_me=1 / trellis=1 / 8x8dct=1 / cqm=0 / deadzone=21,11 / fast_pskip=1 / chroma_qp_offset=-2 / threads=12 / lookahead_threads=2 / sliced_threads=0 / nr=0 / decimate=1 / interlaced=0 / bluray_compat=0 / constrained_intra=0 / bframes=3 / b_pyramid=2 / b_adapt=2 / b_bias=0 / direct=3 / weightb=1 / open_gop=0 / weightp=2 / keyint=240 / keyint_min=24 / scenecut=40 / intra_refresh=0 / rc_lookahead=50 / rc=crf / mbtree=1 / crf=19.0 / qcomp=0.60 / qpmin=0 / qpmax=69 / qpstep=4 / ip_ratio=1.40 / aq=1:1.00
Encoded date : UTC 2018-03-09 16:13:03
Tagged date : UTC 2018-03-09 16:13:11
Color range : Limited
Matrix coefficients : BT.709

Audio
ID : 2
Format : AAC
Format/Info : Advanced Audio Codec
Format profile : LC
Codec ID : mp4a-40-2
Duration : 42 min 34 s
Bit rate mode : Variable
Bit rate : 158 kb/s
Maximum bit rate : 225 kb/s
Channel(s) : 2 channels
Channel positions : Front: L R
Sampling rate : 48.0 kHz
Frame rate : 46.875 FPS (1024 SPF)
Compression mode : Lossy
Stream size : 48.0 MiB (10%)
Language : French
Encoded date : UTC 2018-03-09 16:13:10
Tagged date : UTC 2018-03-09 16:13:11





Knightfall S01E09


Knightfall S01E09


Knightfall S01E09


Knightfall S01E09


Knightfall S01E09

All episodes