Featured TV Shows


Krypton S02E04

Posted By: Tavaz
1080p (FullHD) / HDTV IMDb
Krypton S02E04

Krypton S02E04
HDTV | MKV | 1920x1080 | French / English | H264 @ 2882 kbps | MPEG Audio @ 192 kbps | 41 min 32 s | 971 MiB
Subtitles: French
Genre: Drama


Set two generations before the destruction of the legendary Man of Steel’s home planet, Krypton follows Superman’s grandfather — whose House of El was ostracized and shamed — as he fights to redeem his family’s honor and save his beloved world from chaos.

8bae431fb6fe4742ad2f429023493b01.mkv (971.3 MB)



General
Unique ID : 217266433802688407903908063951954851022 (0xA373FE3A4CB7A29D0AA3243C8BB734CE)
Complete name : ./8bae431fb6fe4742ad2f429023493b01.mkv
Format : Matroska
Format version : Version 4 / Version 2
File size : 971 MiB
Duration : 41 min 32 s
Overall bit rate : 3 269 kb/s
Encoded date : UTC 2020-01-14 21:36:52
Writing application : mkvmerge v42.0.0 ('Overtime') 64-bit
Writing library : libebml v1.3.10 + libmatroska v1.5.2

Video
ID : 1
Format : AVC
Format/Info : Advanced Video Codec
Format profile : High@L4
Format settings : CABAC / 4 Ref Frames
Format settings, CABAC : Yes
Format settings, RefFrames : 4 frames
Codec ID : V_MPEG4/ISO/AVC
Duration : 41 min 32 s
Bit rate : 2 882 kb/s
Width : 1 920 pixels
Height : 1 080 pixels
Display aspect ratio : 16:9
Frame rate mode : Constant
Frame rate : 25.000 FPS
Standard : Component
Color space : YUV
Chroma subsampling : 4:2:0
Bit depth : 8 bits
Scan type : MBAFF
Scan type, store method : Interleaved fields
Scan order : Top Field First
Bits/(Pixel*Frame) : 0.056
Stream size : 856 MiB (88%)
Default : Yes
Forced : No
Color range : Limited
Color primaries : BT.709
Transfer characteristics : BT.709
Matrix coefficients : BT.709

Audio #1
ID : 2
Format : MPEG Audio
Format version : Version 1
Format profile : Layer 2
Codec ID : A_MPEG/L2
Codec ID/Hint : MP2
Duration : 41 min 32 s
Bit rate mode : Constant
Bit rate : 192 kb/s
Channel(s) : 2 channels
Sampling rate : 48.0 kHz
Frame rate : 41.667 FPS (1152 SPF)
Compression mode : Lossy
Stream size : 57.1 MiB (6%)
Title : French
Language : French
Default : Yes
Forced : No

Audio #2
ID : 3
Format : MPEG Audio
Format version : Version 1
Format profile : Layer 2
Codec ID : A_MPEG/L2
Codec ID/Hint : MP2
Duration : 41 min 32 s
Bit rate mode : Constant
Bit rate : 192 kb/s
Channel(s) : 2 channels
Sampling rate : 48.0 kHz
Frame rate : 41.667 FPS (1152 SPF)
Compression mode : Lossy
Stream size : 57.1 MiB (6%)
Title : English
Language : English
Default : No
Forced : No

Text
ID : 4
Format : UTF-8
Codec ID : S_TEXT/UTF8
Codec ID/Info : UTF-8 Plain Text
Duration : 41 min 23 s
Bit rate : 61 b/s
Count of elements : 651
Stream size : 18.7 KiB (0%)
Title : French
Language : French
Default : No
Forced : No





Krypton S02E04


Krypton S02E04


Krypton S02E04


Krypton S02E04


Krypton S02E04

All episodes