Index
# A B C D E F G H I J K L M N O P Q R S T U V W Y Z
Tags
Language
Tags

Featured TV Shows


Kung Fu S01E05

Posted By:
720p (HD) / WEBRip IMDb
Kung Fu S01E05

Kung Fu S01E05
WEBRip | MKV | 1280x640 | English | H264 @ 3340 kbps | E-AC-3 @ 640 kbps | 42 min 18 s | 1.18 GiB
Subtitles: English
Genre: Drama


A quarter-life crisis causes a young Chinese-American woman to drop out of college and go on a life-changing journey to an isolated monastery in China. But when she returns to find her hometown overrun with crime and corruption, she uses her martial arts skills and Shaolin values to protect her community and bring criminals to justice…all while searching for the assassin who killed her Shaolin mentor and is now targeting her.

dedfdf5fcabe4b1ea568445f4be86ac7.mkv (1.2 GB)



General
Unique ID : 83405322635255993164532375128735867606 (0x3EBF47E5075DF4F4364C8965013DE2D6)
Complete name : ./dedfdf5fcabe4b1ea568445f4be86ac7.mkv
Format : Matroska
Format version : Version 4 / Version 2
File size : 1.18 GiB
Duration : 42 min 18 s
Overall bit rate : 3 983 kb/s
Encoded date : UTC 2021-05-06 04:01:02
Writing application : mkvmerge v52.0.0 ('Secret For The Mad') 64-bit
Writing library : libebml v1.4.2 + libmatroska v1.6.2

Video
ID : 1
Format : AVC
Format/Info : Advanced Video Codec
Format profile : High@L3.1
Format settings : CABAC / 4 Ref Frames
Format settings, CABAC : Yes
Format settings, RefFrames : 4 frames
Codec ID : V_MPEG4/ISO/AVC
Duration : 42 min 17 s
Bit rate mode : Constant
Bit rate : 3 341 kb/s
Nominal bit rate : 6 000 kb/s
Width : 1 280 pixels
Height : 640 pixels
Display aspect ratio : 2.000
Frame rate mode : Constant
Frame rate : 23.976 (24000/1001) FPS
Color space : YUV
Chroma subsampling : 4:2:0
Bit depth : 8 bits
Scan type : Progressive
Bits/(Pixel*Frame) : 0.170
Stream size : 1 011 MiB (84%)
Language : English
Default : Yes
Forced : No
Color range : Limited
Color primaries : BT.709
Transfer characteristics : BT.709
Matrix coefficients : BT.709

Audio
ID : 2
Format : E-AC-3
Format/Info : Enhanced Audio Coding 3
Format settings, Endianness : Big
Codec ID : A_EAC3
Duration : 42 min 18 s
Bit rate mode : Constant
Bit rate : 640 kb/s
Channel(s) : 6 channels
Channel positions : Front: L C R, Side: L R, LFE
Sampling rate : 48.0 kHz
Frame rate : 187.500 FPS (256 SPF)
Compression mode : Lossy
Stream size : 194 MiB (16%)
Language : English
Service kind : Complete Main
Default : Yes
Forced : No

Text
ID : 3
Format : UTF-8
Codec ID : S_TEXT/UTF8
Codec ID/Info : UTF-8 Plain Text
Duration : 42 min 7 s
Bit rate : 80 b/s
Count of elements : 905
Stream size : 24.7 KiB (0%)
Title : English
Language : English
Default : No
Forced : No





Kung Fu S01E05


Kung Fu S01E05


Kung Fu S01E05


Kung Fu S01E05


Kung Fu S01E05

All episodes